<?xml version="1.0" standalone="no"?>
<!DOCTYPE svg PUBLIC "-//W3C//DTD SVG 1.1//EN" "http://www.w3.org/Graphics/SVG/1.1/DTD/svg11.dtd" >
<svg xmlns="http://www.w3.org/2000/svg" xmlns:xlink="http://www.w3.org/1999/xlink" version="1.1">
<metadata>
Created by FontForge 20170924 at Mon Oct 29 17:30:13 2018
 By www-data
Copyright (c) 2015 by Reza Bakhtiarifard / Bakh. All rights reserved.
</metadata>
<defs>
<font id="YekanBakh-Fat" horiz-adv-x="0" >
  <font-face 
    font-family="Yekan Bakh Fat"
    font-weight="400"
    font-stretch="normal"
    units-per-em="1000"
    panose-1="1 0 5 4 0 0 0 2 0 4"
    ascent="800"
    descent="-200"
    x-height="460"
    cap-height="637"
    bbox="-204 -500 1419 1001"
    underline-thickness="25"
    underline-position="-50"
    unicode-range="U+000A-FFFC"
  />
<missing-glyph horiz-adv-x="528" 
d="M473 0h-418v610h418v-610zM237 418v-225h54v225h-54z" />
    <glyph glyph-name="uniFEFB" unicode="&#xfedf;&#xfe8e;" horiz-adv-x="484" arabic-form="isolated" 
d="M451 610v-417q0 -50 -13.5 -86t-38 -60t-58 -35.5t-72.5 -11.5h-236v610h182v-417h38q16 0 16 16v401h182z" />
    <glyph glyph-name="uniFEFC" unicode="&#xfee0;&#xfe8e;" horiz-adv-x="506" arabic-form="final" 
d="M33 0v610h182v-417h38q16 0 16 16v401h182v-401q0 -7 5 -11.5t12 -4.5h38q6 0 10 -2.5t7 -11.5t4 -28t1 -52q0 -35 -1 -55t-4 -30t-7 -12t-10 -2h-32q-34 0 -62 6t-49 27q-25 -21 -49 -27t-45 -6h-236z" />
    <glyph glyph-name="uniFEF5" unicode="&#xfedf;&#xfe82;" horiz-adv-x="484" arabic-form="isolated" 
d="M451 610v-417q0 -50 -13.5 -86t-38 -60t-58 -35.5t-72.5 -11.5h-236v479h182v-286h38q16 0 16 16v401h182zM61 555q-13 0 -21 -2t-16 -16l-35 -69l-116 60l39 82q13 28 25.5 46.5t29 29t39 14.5t55.5 4h170v-149h-170z" />
    <glyph glyph-name="uniFEF6" unicode="&#xfee0;&#xfe82;" horiz-adv-x="484" arabic-form="final" 
d="M33 0v479h182v-286h38q16 0 16 16v401h182v-401q0 -7 5 -11.5t12 -4.5h16q6 0 10.5 -2.5t7 -11.5t3.5 -28t1 -52q0 -35 -1 -55t-3.5 -30t-7 -12t-10.5 -2h-10q-34 0 -62 6t-49 27q-25 -21 -49 -27t-45 -6h-236zM61 555q-13 0 -21 -2t-16 -16l-35 -69l-116 60l39 82
q13 28 25.5 46.5t29 29t39 14.5t55.5 4h170v-149h-170z" />
    <glyph glyph-name="uniFEF7" unicode="&#xfedf;&#xfe84;" horiz-adv-x="484" arabic-form="isolated" 
d="M451 610v-417q0 -50 -13.5 -86t-38 -60t-58 -35.5t-72.5 -11.5h-236v479h182v-286h38q16 0 16 16v401h182zM-17 600l51 28q-20 16 -30 39.5t-10 48.5q0 20 7 40.5t21 37t34.5 27t47.5 10.5h88l-16 -110h-50q-11 0 -19 -5.5t-8 -16.5q0 -9 6 -15.5t14 -6.5q14 0 34.5 9
t61.5 32l43 -101l-225 -116z" />
    <glyph glyph-name="uniFEF8" unicode="&#xfee0;&#xfe84;" horiz-adv-x="484" arabic-form="final" 
d="M33 0v479h182v-286h38q16 0 16 16v401h182v-401q0 -7 5 -11.5t12 -4.5h16q6 0 10.5 -2.5t7 -11.5t3.5 -28t1 -52q0 -35 -1 -55t-3.5 -30t-7 -12t-10.5 -2h-10q-34 0 -62 6t-49 27q-25 -21 -49 -27t-45 -6h-236zM-17 600l51 28q-20 16 -30 39.5t-10 48.5q0 20 7 40.5
t21 37t34.5 27t47.5 10.5h88l-16 -110h-50q-11 0 -19 -5.5t-8 -16.5q0 -9 6 -15.5t14 -6.5q14 0 34.5 9t61.5 32l43 -101l-225 -116z" />
    <glyph glyph-name="uniFEF9" unicode="&#xfedf;&#xfe88;" horiz-adv-x="484" arabic-form="isolated" 
d="M451 610v-417q0 -50 -13.5 -86t-38 -60t-58 -35.5t-72.5 -11.5h-236v610h182v-417h38q16 0 16 16v401h182zM16 -285l51 28q-20 16 -30 39.5t-10 48.5q0 20 7 40.5t21 37t34.5 27t47.5 10.5h88l-16 -110h-50q-11 0 -19 -5.5t-8 -16.5q0 -9 6 -15.5t14 -6.5q14 0 34.5 9
t61.5 32l43 -101l-225 -116z" />
    <glyph glyph-name="uniFEFA" unicode="&#xfee0;&#xfe88;" horiz-adv-x="506" arabic-form="final" 
d="M33 0v610h182v-417h38q16 0 16 16v401h182v-401q0 -7 5 -11.5t12 -4.5h38q6 0 10 -2.5t7 -11.5t4 -28t1 -52q0 -35 -1 -55t-4 -30t-7 -12t-10 -2h-32q-34 0 -62 6t-49 27q-25 -21 -49 -27t-45 -6h-236zM16 -285l51 28q-20 16 -30 39.5t-10 48.5q0 20 7 40.5t21 37
t34.5 27t47.5 10.5h88l-16 -110h-50q-11 0 -19 -5.5t-8 -16.5q0 -9 6 -15.5t14 -6.5q14 0 34.5 9t61.5 32l43 -101l-225 -116z" />
    <glyph glyph-name="la.tvasla" unicode="&#xfedf;&#xfb51;" horiz-adv-x="484" 
d="M451 610v-417q0 -50 -13.5 -86t-38 -60t-58 -35.5t-72.5 -11.5h-236v479h182v-286h38q16 0 16 16v401h182zM-28 573v102l78 9v-67q29 58 59.5 88.5t69.5 30.5q34 0 59.5 -27.5t25.5 -72.5q0 -17 -5.5 -36t-19 -35t-35 -26.5t-52.5 -10.5h-134zM161 613q6 0 11.5 3.5
t5.5 11.5q0 5 -3.5 8.5t-8.5 3.5q-9 0 -14.5 -7t-13.5 -20h23z" />
    <glyph glyph-name="la.tvasla.fina" unicode="&#xfee0;&#xfb51;" horiz-adv-x="484" 
d="M33 0v479h182v-286h38q16 0 16 16v401h182v-401q0 -7 5 -11.5t12 -4.5h16q6 0 10.5 -2.5t7 -11.5t3.5 -28t1 -52q0 -35 -1 -55t-3.5 -30t-7 -12t-10.5 -2h-10q-34 0 -62 6t-49 27q-25 -21 -49 -27t-45 -6h-236zM-28 573v102l78 9v-67q29 58 59.5 88.5t69.5 30.5
q34 0 59.5 -27.5t25.5 -72.5q0 -17 -5.5 -36t-19 -35t-35 -26.5t-52.5 -10.5h-134zM161 613q6 0 11.5 3.5t5.5 11.5q0 5 -3.5 8.5t-8.5 3.5q-9 0 -14.5 -7t-13.5 -20h23z" />
    <glyph glyph-name="uniFDF2" unicode="&#x627;&#xfedf;&#xfee0;&#xfeea;" horiz-adv-x="1276" arabic-form="isolated" 
d="M809 193q6 0 11 4.5t5 11.5v324h182v-340q0 -50 -13.5 -86t-38 -60t-58 -35.5t-72.5 -11.5h-76q-34 0 -62.5 6t-48.5 27q-25 -21 -49 -27t-45 -6h-104q-37 0 -70.5 14t-50.5 52q-29 -17 -55.5 -22.5t-59.5 -5.5q-39 0 -71.5 11.5t-56 36t-36 62t-12.5 89.5
q0 39 13.5 77.5t38 68.5t60 49t80.5 19h28v61h181v-303q0 -7 5 -11.5t12 -4.5h82q16 0 16 16v226h182v-226q0 -7 5 -11.5t12 -4.5h66zM198 242q0 -17 7.5 -22t20.5 -5q17 0 24.5 7.5t7.5 19.5v33h-27q-33 0 -33 -33zM566 1001h110v-231h-110v231zM671 594h16q7 0 12 5t5 11
v116h105v-94q0 -47 -13 -75t-32 -43t-41.5 -19.5t-41.5 -4.5h-21q-8 0 -17 3t-22 13q-12 -10 -21 -13t-17 -3h-22q-18 0 -40 4.5t-41 19.5t-32 43t-13 75v94h104v-116q0 -6 5 -11t11 -5h17v132h99v-132zM1061 610h182v-610h-182v610z" />
    <glyph glyph-name="lellah" unicode="&#xfedf;&#x650;&#xfee0;&#x654;&#xfeea;" horiz-adv-x="1034" 
d="M809 193q6 0 11 4.5t5 11.5v324h182v-340q0 -50 -13.5 -86t-38 -60t-58 -35.5t-72.5 -11.5h-76q-34 0 -62.5 6t-48.5 27q-25 -21 -49 -27t-45 -6h-104q-37 0 -70.5 14t-50.5 52q-29 -17 -55.5 -22.5t-59.5 -5.5q-39 0 -71.5 11.5t-56 36t-36 62t-12.5 89.5
q0 39 13.5 77.5t38 68.5t60 49t80.5 19h28v61h181v-303q0 -7 5 -11.5t12 -4.5h82q16 0 16 16v226h182v-226q0 -7 5 -11.5t12 -4.5h66zM198 242q0 -17 7.5 -22t20.5 -5q17 0 24.5 7.5t7.5 19.5v33h-27q-33 0 -33 -33zM566 1001h110v-231h-110v231zM671 594h16q7 0 12 5t5 11
v116h105v-94q0 -47 -13 -75t-32 -43t-41.5 -19.5t-41.5 -4.5h-21q-8 0 -17 3t-22 13q-12 -10 -21 -13t-17 -3h-22q-18 0 -40 4.5t-41 19.5t-32 43t-13 75v94h104v-116q0 -6 5 -11t11 -5h17v132h99v-132z" />
    <glyph glyph-name="uni0627" unicode="&#x627;" horiz-adv-x="248" arabic-form="isolated" 
d="M33 610h182v-610h-182v610z" />
    <glyph glyph-name="uniFE8E" unicode="&#x627;" horiz-adv-x="269" arabic-form="final" 
d="M269 193q6 0 10.5 -2.5t7 -11.5t3.5 -28t1 -52q0 -35 -1 -55t-3.5 -30t-7 -12t-10.5 -2h-49q-52 0 -87.5 15.5t-57.5 41.5t-32 61.5t-10 74.5v417h182v-401q0 -16 16 -16h38z" />
    <glyph glyph-name="uni0622" unicode="&#x622;" horiz-adv-x="248" arabic-form="isolated" 
d="M33 501h182v-501h-182v501zM60 556q-13 0 -20.5 -2.5t-15.5 -16.5l-36 -69l-115 61l38 82q13 28 26 46.5t29 29t38.5 14.5t55.5 4h209v-149h-209z" />
    <glyph glyph-name="uniFE82" unicode="&#x622;" horiz-adv-x="269" arabic-form="final" 
d="M269 193q6 0 10.5 -2.5t7 -11.5t3.5 -28t1 -52q0 -35 -1 -55t-3.5 -30t-7 -12t-10.5 -2h-49q-52 0 -87.5 15.5t-57.5 41.5t-32 61.5t-10 74.5v308h182v-292q0 -16 16 -16h38zM60 556q-13 0 -20.5 -2.5t-15.5 -16.5l-36 -69l-115 61l38 82q13 28 26 46.5t29 29t38.5 14.5
t55.5 4h209v-149h-209z" />
    <glyph glyph-name="uni0623" unicode="&#x623;" horiz-adv-x="248" arabic-form="isolated" 
d="M33 501h182v-501h-182v501zM-17 600l51 28q-20 16 -30 39.5t-10 48.5q0 20 7 40.5t21 37t34.5 27t47.5 10.5h88l-16 -110h-50q-11 0 -19 -5.5t-8 -16.5q0 -9 6 -15.5t14 -6.5q14 0 34.5 9t61.5 32l43 -101l-225 -116z" />
    <glyph glyph-name="uniFE84" unicode="&#x623;" horiz-adv-x="269" arabic-form="final" 
d="M269 193q6 0 10.5 -2.5t7 -11.5t3.5 -28t1 -52q0 -35 -1 -55t-3.5 -30t-7 -12t-10.5 -2h-49q-52 0 -87.5 15.5t-57.5 41.5t-32 61.5t-10 74.5v308h182v-292q0 -16 16 -16h38zM-17 600l51 28q-20 16 -30 39.5t-10 48.5q0 20 7 40.5t21 37t34.5 27t47.5 10.5h88l-16 -110
h-50q-11 0 -19 -5.5t-8 -16.5q0 -9 6 -15.5t14 -6.5q14 0 34.5 9t61.5 32l43 -101l-225 -116z" />
    <glyph glyph-name="uni0625" unicode="&#x625;" horiz-adv-x="248" arabic-form="isolated" 
d="M33 610h182v-610h-182v610zM-11 -285l51 28q-20 16 -30 39.5t-10 48.5q0 20 7 40.5t21 37t34.5 27t47.5 10.5h88l-16 -110h-50q-11 0 -19 -5.5t-8 -16.5q0 -9 6 -15.5t14 -6.5q14 0 34.5 9t61.5 32l43 -101l-225 -116z" />
    <glyph glyph-name="uniFE88" unicode="&#x625;" horiz-adv-x="269" arabic-form="final" 
d="M269 193q6 0 10.5 -2.5t7 -11.5t3.5 -28t1 -52q0 -35 -1 -55t-3.5 -30t-7 -12t-10.5 -2h-49q-52 0 -87.5 15.5t-57.5 41.5t-32 61.5t-10 74.5v417h182v-401q0 -16 16 -16h38zM16 -285l51 28q-20 16 -30 39.5t-10 48.5q0 20 7 40.5t21 37t34.5 27t47.5 10.5h88l-16 -110
h-50q-11 0 -19 -5.5t-8 -16.5q0 -9 6 -15.5t14 -6.5q14 0 34.5 9t61.5 32l43 -101l-225 -116z" />
    <glyph glyph-name="uni0671" unicode="&#x671;" horiz-adv-x="248" arabic-form="isolated" 
d="M33 501h182v-501h-182v501zM-22 578v113l86 10v-74q33 64 66.5 98t76.5 34q19 0 36 -8t30 -22.5t21 -35t8 -45.5q0 -19 -6.5 -40t-21 -39t-38 -29.5t-58.5 -11.5h-149zM187 622q7 0 13 4t6 13q0 13 -13 13q-10 0 -16.5 -8t-14.5 -22h25z" />
    <glyph glyph-name="uniFB51" unicode="&#x671;" horiz-adv-x="269" arabic-form="final" 
d="M269 193q6 0 10.5 -2.5t7 -11.5t3.5 -28t1 -52q0 -35 -1 -55t-3.5 -30t-7 -12t-10.5 -2h-49q-52 0 -87.5 15.5t-57.5 41.5t-32 61.5t-10 74.5v308h182v-292q0 -16 16 -16h38zM-22 578v113l86 10v-74q33 64 66.5 98t76.5 34q19 0 36 -8t30 -22.5t21 -35t8 -45.5
q0 -19 -6.5 -40t-21 -39t-38 -29.5t-58.5 -11.5h-149zM187 622q7 0 13 4t6 13q0 13 -13 13q-10 0 -16.5 -8t-14.5 -22h25z" />
    <glyph glyph-name="uni0628" unicode="&#x628;" horiz-adv-x="704" arabic-form="isolated" 
d="M215 0q-52 0 -87.5 15.5t-57.5 41.5t-32 61.5t-10 74.5v165h181v-149q0 -7 5 -11.5t12 -4.5h253q6 0 11 4.5t5 11.5v149h181v-165q0 -48 -13.5 -84t-38 -60t-57.5 -36.5t-72 -12.5h-280zM440 -192h-182v138h182v-138z" />
    <glyph glyph-name="uniFE90" unicode="&#x628;" horiz-adv-x="732" arabic-form="final" 
d="M215 0q-52 0 -87.5 15.5t-57.5 41.5t-32 61.5t-10 74.5v165h181v-149q0 -7 5 -11.5t12 -4.5h253q6 0 11 4.5t5 11.5v149h181v-149q0 -7 5 -11.5t12 -4.5h39q6 0 10 -2.5t7 -11.5t4 -28t1 -52q0 -35 -1 -55t-4 -30t-7 -12t-10 -2h-32q-35 0 -63 6t-49 27q-25 -21 -49 -27
t-44 -6h-280zM440 -192h-182v138h182v-138z" />
    <glyph glyph-name="uniFE92" unicode="&#x628;" horiz-adv-x="291" arabic-form="medial" 
d="M38 193q7 0 12 4.5t5 11.5v149h182v-149q0 -16 16 -16h38q6 0 10.5 -2.5t7 -11.5t3.5 -28t1 -52q0 -35 -1 -55t-3.5 -30t-7 -12t-10.5 -2h-31q-34 0 -62.5 6t-49.5 27q-24 -21 -48.5 -27t-44.5 -6h-55q-6 0 -10.5 2t-7 11.5t-3.5 28.5t-1 52q0 35 1 55t3.5 29.5t7 12
t10.5 2.5h38zM242 -192h-182v138h182v-138z" />
    <glyph glyph-name="uniFE91" unicode="&#x628;" horiz-adv-x="286" arabic-form="initial" 
d="M61 193q6 0 11 4.5t5 11.5v149h181v-165q0 -48 -13.5 -84t-37.5 -60t-57.5 -36.5t-72.5 -12.5h-77q-6 0 -10.5 2t-7 11.5t-3.5 28.5t-1 52q0 35 1 55t3.5 29.5t7 12t10.5 2.5h61zM226 -192h-182v138h182v-138z" />
    <glyph glyph-name="uni067E" unicode="&#x67e;" horiz-adv-x="704" arabic-form="isolated" 
d="M215 0q-52 0 -87.5 15.5t-57.5 41.5t-32 61.5t-10 74.5v165h181v-149q0 -7 5 -11.5t12 -4.5h253q6 0 11 4.5t5 11.5v149h181v-165q0 -48 -13.5 -84t-38 -60t-57.5 -36.5t-72 -12.5h-280zM417 -357h-143v138h143v-138zM489 -192h-286v138h286v-138z" />
    <glyph glyph-name="uniFB57" unicode="&#x67e;" horiz-adv-x="732" arabic-form="final" 
d="M215 0q-52 0 -87.5 15.5t-57.5 41.5t-32 61.5t-10 74.5v165h181v-149q0 -7 5 -11.5t12 -4.5h253q6 0 11 4.5t5 11.5v149h181v-149q0 -7 5 -11.5t12 -4.5h39q6 0 10 -2.5t7 -11.5t4 -28t1 -52q0 -35 -1 -55t-4 -30t-7 -12t-10 -2h-32q-35 0 -63 6t-49 27q-25 -21 -49 -27
t-44 -6h-280zM417 -357h-143v138h143v-138zM489 -192h-286v138h286v-138z" />
    <glyph glyph-name="uniFB59" unicode="&#x67e;" horiz-adv-x="291" arabic-form="medial" 
d="M38 193q7 0 12 4.5t5 11.5v149h182v-149q0 -16 16 -16h38q6 0 10.5 -2.5t7 -11.5t3.5 -28t1 -52q0 -35 -1 -55t-3.5 -30t-7 -12t-10.5 -2h-31q-34 0 -62.5 6t-49.5 27q-24 -21 -48.5 -27t-44.5 -6h-55q-6 0 -10.5 2t-7 11.5t-3.5 28.5t-1 52q0 35 1 55t3.5 29.5t7 12
t10.5 2.5h38zM214 -357h-143v138h143v-138zM286 -192h-286v138h286v-138z" />
    <glyph glyph-name="uniFB58" unicode="&#x67e;" horiz-adv-x="286" arabic-form="initial" 
d="M61 193q6 0 11 4.5t5 11.5v149h181v-165q0 -48 -13.5 -84t-37.5 -60t-57.5 -36.5t-72.5 -12.5h-77q-6 0 -10.5 2t-7 11.5t-3.5 28.5t-1 52q0 35 1 55t3.5 29.5t7 12t10.5 2.5h61zM214 -357h-143v138h143v-138zM286 -192h-286v138h286v-138z" />
    <glyph glyph-name="uni062A" unicode="&#x62a;" horiz-adv-x="704" arabic-form="isolated" 
d="M215 0q-52 0 -87.5 15.5t-57.5 41.5t-32 61.5t-10 74.5v165h181v-149q0 -7 5 -11.5t12 -4.5h253q6 0 11 4.5t5 11.5v149h181v-165q0 -48 -13.5 -84t-38 -60t-57.5 -36.5t-72 -12.5h-280zM495 413h-286v137h286v-137z" />
    <glyph glyph-name="uniFE96" unicode="&#x62a;" horiz-adv-x="732" arabic-form="final" 
d="M215 0q-52 0 -87.5 15.5t-57.5 41.5t-32 61.5t-10 74.5v165h181v-149q0 -7 5 -11.5t12 -4.5h253q6 0 11 4.5t5 11.5v149h181v-149q0 -7 5 -11.5t12 -4.5h39q6 0 10 -2.5t7 -11.5t4 -28t1 -52q0 -35 -1 -55t-4 -30t-7 -12t-10 -2h-32q-35 0 -63 6t-49 27q-25 -21 -49 -27
t-44 -6h-280zM495 413h-286v137h286v-137z" />
    <glyph glyph-name="uniFE98" unicode="&#x62a;" horiz-adv-x="291" arabic-form="medial" 
d="M38 193q7 0 12 4.5t5 11.5v149h182v-149q0 -16 16 -16h38q6 0 10.5 -2.5t7 -11.5t3.5 -28t1 -52q0 -35 -1 -55t-3.5 -30t-7 -12t-10.5 -2h-31q-34 0 -62.5 6t-49.5 27q-24 -21 -48.5 -27t-44.5 -6h-55q-6 0 -10.5 2t-7 11.5t-3.5 28.5t-1 52q0 35 1 55t3.5 29.5t7 12
t10.5 2.5h38zM286 413h-286v137h286v-137z" />
    <glyph glyph-name="uniFE97" unicode="&#x62a;" horiz-adv-x="286" arabic-form="initial" 
d="M61 193q6 0 11 4.5t5 11.5v149h181v-165q0 -48 -13.5 -84t-37.5 -60t-57.5 -36.5t-72.5 -12.5h-77q-6 0 -10.5 2t-7 11.5t-3.5 28.5t-1 52q0 35 1 55t3.5 29.5t7 12t10.5 2.5h61zM286 413h-286v137h286v-137z" />
    <glyph glyph-name="uni062B" unicode="&#x62b;" horiz-adv-x="704" arabic-form="isolated" 
d="M215 0q-52 0 -87.5 15.5t-57.5 41.5t-32 61.5t-10 74.5v165h181v-149q0 -7 5 -11.5t12 -4.5h253q6 0 11 4.5t5 11.5v149h181v-165q0 -48 -13.5 -84t-38 -60t-57.5 -36.5t-72 -12.5h-280zM423 578h-143v137h143v-137zM495 413h-286v137h286v-137z" />
    <glyph glyph-name="uniFE9A" unicode="&#x62b;" horiz-adv-x="732" arabic-form="final" 
d="M215 0q-52 0 -87.5 15.5t-57.5 41.5t-32 61.5t-10 74.5v165h181v-149q0 -7 5 -11.5t12 -4.5h253q6 0 11 4.5t5 11.5v149h181v-149q0 -7 5 -11.5t12 -4.5h39q6 0 10 -2.5t7 -11.5t4 -28t1 -52q0 -35 -1 -55t-4 -30t-7 -12t-10 -2h-32q-35 0 -63 6t-49 27q-25 -21 -49 -27
t-44 -6h-280zM423 578h-143v137h143v-137zM495 413h-286v137h286v-137z" />
    <glyph glyph-name="uniFE9C" unicode="&#x62b;" horiz-adv-x="291" arabic-form="medial" 
d="M38 193q7 0 12 4.5t5 11.5v149h182v-149q0 -16 16 -16h38q6 0 10.5 -2.5t7 -11.5t3.5 -28t1 -52q0 -35 -1 -55t-3.5 -30t-7 -12t-10.5 -2h-31q-34 0 -62.5 6t-49.5 27q-24 -21 -48.5 -27t-44.5 -6h-55q-6 0 -10.5 2t-7 11.5t-3.5 28.5t-1 52q0 35 1 55t3.5 29.5t7 12
t10.5 2.5h38zM214 578h-143v137h143v-137zM286 413h-286v137h286v-137z" />
    <glyph glyph-name="uniFE9B" unicode="&#x62b;" horiz-adv-x="286" arabic-form="initial" 
d="M61 193q6 0 11 4.5t5 11.5v149h181v-165q0 -48 -13.5 -84t-37.5 -60t-57.5 -36.5t-72.5 -12.5h-77q-6 0 -10.5 2t-7 11.5t-3.5 28.5t-1 52q0 35 1 55t3.5 29.5t7 12t10.5 2.5h61zM214 578h-143v137h143v-137zM286 413h-286v137h286v-137z" />
    <glyph glyph-name="uni062C" unicode="&#x62c;" horiz-adv-x="555" arabic-form="isolated" 
d="M209 -61q0 -33 22 -52t71 -19h220l-14 -193h-211q-76 0 -127.5 19t-83 52t-45 77t-13.5 94q0 45 13 84.5t44.5 77.5t85.5 76t137 82q-5 12 -13 16.5t-20 4.5h-214l16 182h247q29 0 57 -8t53.5 -34.5t49 -77.5t44.5 -138l-204 -116q-57 -33 -86 -63.5t-29 -63.5zM518 -72
h-182v138h182v-138z" />
    <glyph glyph-name="uniFE9E" unicode="&#x62c;" horiz-adv-x="572" arabic-form="final" 
d="M465 193h107q6 0 10 -2.5t7 -11.5t4 -28t1 -52q0 -35 -1 -55t-4 -30t-7 -12t-10 -2h-82q-57 0 -91.5 23t-55.5 53l-19 -10q-57 -33 -86 -63.5t-29 -63.5t22 -52t71 -19h220l-14 -193h-211q-76 0 -127.5 19t-83 52t-45 77t-13.5 94q0 45 13 84.5t44.5 77.5t85.5 76t137 82
q-5 12 -13 16.5t-20 4.5h-214l16 182h247q29 0 55 -7t50 -29t45.5 -63.5t42.5 -109.5zM395.801 -96.6016h-127.402v96.6016h127.402v-96.6016z" />
    <glyph glyph-name="uniFEA0" unicode="&#x62c;" horiz-adv-x="566" arabic-form="medial" 
d="M55 258l16 182h248q29 0 55 -7t49.5 -29t44.5 -63.5t41 -109.5l-49 -38h106q6 0 10.5 -2.5t7 -11.5t3.5 -28t1 -52q0 -35 -1 -55t-3.5 -30t-7 -12t-10.5 -2h-82q-57 0 -91.5 23t-54.5 53l-19 -10q-33 -19 -61 -31.5t-56.5 -20t-60 -11t-70.5 -3.5h-71q-6 0 -10.5 2
t-7 11.5t-3.5 28.5t-1 52q0 35 1 55t3.5 29.5t7 12t10.5 2.5h77q25 0 49.5 0.5t51 5t57 13t67.5 25.5q-4 12 -12 16.5t-21 4.5h-214zM331 -192h-182v138h182v-138z" />
    <glyph glyph-name="uniFE9F" unicode="&#x62c;" horiz-adv-x="544" arabic-form="initial" 
d="M77 193q25 0 49.5 0.5t51 5t57 13t67.5 25.5q-4 12 -12 16.5t-21 4.5h-214l16 182h248q29 0 56.5 -8t53.5 -34.5t49.5 -77.5t43.5 -138l-203 -116q-33 -19 -61 -31.5t-56.5 -20t-60 -11t-70.5 -3.5h-71q-6 0 -10.5 2t-7 11.5t-3.5 28.5t-1 52q0 35 1 55t3.5 29.5t7 12
t10.5 2.5h77zM331 -192h-182v138h182v-138z" />
    <glyph glyph-name="uni0686" unicode="&#x686;" horiz-adv-x="555" arabic-form="isolated" 
d="M519 -28h-46v-72h-92v72h-46v89h184v-89zM209 -61q0 -33 22 -52t71 -19h220l-14 -193h-211q-76 0 -127.5 19t-83 52t-45 77t-13.5 94q0 45 13 84.5t44.5 77.5t85.5 76t137 82q-5 12 -13 16.5t-20 4.5h-214l16 182h247q29 0 57 -8t53.5 -34.5t49 -77.5t44.5 -138
l-204 -116q-57 -33 -86 -63.5t-29 -63.5z" />
    <glyph glyph-name="uniFB7B" unicode="&#x686;" horiz-adv-x="572" arabic-form="final" 
d="M533 0q-57 0 -95 25t-65 69l-49 -28q-57 -33 -86 -63.5t-29 -63.5t22 -52t71 -19h220l-14 -193h-211q-76 0 -127.5 19t-83 52t-45 77t-13.5 94q0 45 13 84.5t44.5 77.5t85.5 76t137 82q-5 12 -13 16.5t-20 4.5h-214l16 182h247q29 0 55 -7t50 -29t45.5 -63.5t42.5 -109.5
l-52 -38h107q6 0 10 -2.5t7 -11.5t4 -28t1 -52q0 -35 -1 -55t-4 -30t-7 -12t-10 -2h-39zM429 -51h-38v-60h-78v60h-38v74h154v-74z" />
    <glyph glyph-name="uniFB7D" unicode="&#x686;" horiz-adv-x="566" arabic-form="medial" 
d="M55 258l16 182h248q29 0 55 -7t49.5 -29t44.5 -63.5t41 -109.5l-49 -38h106q6 0 10.5 -2.5t7 -11.5t3.5 -28t1 -52q0 -35 -1 -55t-3.5 -30t-7 -12t-10.5 -2h-82q-57 0 -91.5 23t-54.5 53l-19 -10q-33 -19 -61 -31.5t-56.5 -20t-60 -11t-70.5 -3.5h-71q-6 0 -10.5 2
t-7 11.5t-3.5 28.5t-1 52q0 35 1 55t3.5 29.5t7 12t10.5 2.5h77q25 0 49.5 0.5t51 5t57 13t67.5 25.5q-4 12 -12 16.5t-21 4.5h-214zM308 -357h-143v138h143v-138zM380 -192h-286v138h286v-138z" />
    <glyph glyph-name="uniFB7C" unicode="&#x686;" horiz-adv-x="544" arabic-form="initial" 
d="M77 193q25 0 49.5 0.5t51 5t57 13t67.5 25.5q-4 12 -12 16.5t-21 4.5h-214l16 182h248q29 0 56.5 -8t53.5 -34.5t49.5 -77.5t43.5 -138l-203 -116q-33 -19 -61 -31.5t-56.5 -20t-60 -11t-70.5 -3.5h-71q-6 0 -10.5 2t-7 11.5t-3.5 28.5t-1 52q0 35 1 55t3.5 29.5t7 12
t10.5 2.5h77zM308 -357h-143v138h143v-138zM380 -192h-286v138h286v-138z" />
    <glyph glyph-name="uni062D" unicode="&#x62d;" horiz-adv-x="555" arabic-form="isolated" 
d="M209 -61q0 -33 22 -52t71 -19h220l-14 -193h-211q-76 0 -127.5 19t-83 52t-45 77t-13.5 94q0 45 13 84.5t44.5 77.5t85.5 76t137 82q-5 12 -13 16.5t-20 4.5h-214l16 182h247q29 0 57 -8t53.5 -34.5t49 -77.5t44.5 -138l-204 -116q-57 -33 -86 -63.5t-29 -63.5z" />
    <glyph glyph-name="uniFEA2" unicode="&#x62d;" horiz-adv-x="572" arabic-form="final" 
d="M465 193h107q6 0 10 -2.5t7 -11.5t4 -28t1 -52q0 -35 -1 -55t-4 -30t-7 -12t-10 -2h-82q-57 0 -91.5 23t-55.5 53l-19 -10q-57 -33 -86 -63.5t-29 -63.5t22 -52t71 -19h220l-14 -193h-211q-76 0 -127.5 19t-83 52t-45 77t-13.5 94q0 45 13 84.5t44.5 77.5t85.5 76t137 82
q-5 12 -13 16.5t-20 4.5h-214l16 182h247q29 0 55 -7t50 -29t45.5 -63.5t42.5 -109.5z" />
    <glyph glyph-name="uniFEA4" unicode="&#x62d;" horiz-adv-x="566" arabic-form="medial" 
d="M55 258l16 182h248q29 0 55 -7t49.5 -29t44.5 -63.5t41 -109.5l-49 -38h106q6 0 10.5 -2.5t7 -11.5t3.5 -28t1 -52q0 -35 -1 -55t-3.5 -30t-7 -12t-10.5 -2h-82q-57 0 -91.5 23t-54.5 53l-19 -10q-33 -19 -61 -31.5t-56.5 -20t-60 -11t-70.5 -3.5h-71q-6 0 -10.5 2
t-7 11.5t-3.5 28.5t-1 52q0 35 1 55t3.5 29.5t7 12t10.5 2.5h77q25 0 49.5 0.5t51 5t57 13t67.5 25.5q-4 12 -12 16.5t-21 4.5h-214z" />
    <glyph glyph-name="uniFEA3" unicode="&#x62d;" horiz-adv-x="544" arabic-form="initial" 
d="M77 193q25 0 49.5 0.5t51 5t57 13t67.5 25.5q-4 12 -12 16.5t-21 4.5h-214l16 182h248q29 0 56.5 -8t53.5 -34.5t49.5 -77.5t43.5 -138l-203 -116q-33 -19 -61 -31.5t-56.5 -20t-60 -11t-70.5 -3.5h-71q-6 0 -10.5 2t-7 11.5t-3.5 28.5t-1 52q0 35 1 55t3.5 29.5t7 12
t10.5 2.5h77z" />
    <glyph glyph-name="uni062E" unicode="&#x62e;" horiz-adv-x="555" arabic-form="isolated" 
d="M209 -61q0 -33 22 -52t71 -19h220l-14 -193h-211q-76 0 -127.5 19t-83 52t-45 77t-13.5 94q0 45 13 84.5t44.5 77.5t85.5 76t137 82q-5 12 -13 16.5t-20 4.5h-214l16 182h247q29 0 57 -8t53.5 -34.5t49 -77.5t44.5 -138l-204 -116q-57 -33 -86 -63.5t-29 -63.5zM347 501
h-182v137h182v-137z" />
    <glyph glyph-name="uniFEA6" unicode="&#x62e;" horiz-adv-x="572" arabic-form="final" 
d="M465 193h107q6 0 10 -2.5t7 -11.5t4 -28t1 -52q0 -35 -1 -55t-4 -30t-7 -12t-10 -2h-82q-57 0 -91.5 23t-55.5 53l-19 -10q-57 -33 -86 -63.5t-29 -63.5t22 -52t71 -19h220l-14 -193h-211q-76 0 -127.5 19t-83 52t-45 77t-13.5 94q0 45 13 84.5t44.5 77.5t85.5 76t137 82
q-5 12 -13 16.5t-20 4.5h-214l16 182h247q29 0 55 -7t50 -29t45.5 -63.5t42.5 -109.5zM347 501h-182v137h182v-137z" />
    <glyph glyph-name="uniFEA8" unicode="&#x62e;" horiz-adv-x="566" arabic-form="medial" 
d="M55 258l16 182h248q29 0 55 -7t49.5 -29t44.5 -63.5t41 -109.5l-49 -38h106q6 0 10.5 -2.5t7 -11.5t3.5 -28t1 -52q0 -35 -1 -55t-3.5 -30t-7 -12t-10.5 -2h-82q-57 0 -91.5 23t-54.5 53l-19 -10q-33 -19 -61 -31.5t-56.5 -20t-60 -11t-70.5 -3.5h-71q-6 0 -10.5 2
t-7 11.5t-3.5 28.5t-1 52q0 35 1 55t3.5 29.5t7 12t10.5 2.5h77q25 0 49.5 0.5t51 5t57 13t67.5 25.5q-4 12 -12 16.5t-21 4.5h-214zM347 501h-182v137h182v-137z" />
    <glyph glyph-name="uniFEA7" unicode="&#x62e;" horiz-adv-x="544" arabic-form="initial" 
d="M77 193q25 0 49.5 0.5t51 5t57 13t67.5 25.5q-4 12 -12 16.5t-21 4.5h-214l16 182h248q29 0 56.5 -8t53.5 -34.5t49.5 -77.5t43.5 -138l-203 -116q-33 -19 -61 -31.5t-56.5 -20t-60 -11t-70.5 -3.5h-71q-6 0 -10.5 2t-7 11.5t-3.5 28.5t-1 52q0 35 1 55t3.5 29.5t7 12
t10.5 2.5h77zM347 501h-182v137h182v-137z" />
    <glyph glyph-name="uni062F" unicode="&#x62f;" horiz-adv-x="517" arabic-form="isolated" 
d="M116 396l137 132l176 -215q38 -45 49.5 -81t11.5 -67q0 -34 -11.5 -64t-34.5 -52.5t-58.5 -35.5t-83.5 -13h-264l-16 193h231q16 0 16 13q0 9 -11 23z" />
    <glyph glyph-name="uniFEAA" unicode="&#x62f;" horiz-adv-x="522" arabic-form="final" 
d="M269 204q0 4 -2 10t-9 23l-82 214l170 77l122 -319q6 -16 22 -16h32q6 0 10.5 -2.5t7 -11.5t3.5 -28t1 -52q0 -35 -1 -55t-3.5 -30t-7 -12t-10.5 -2h-49q-20 0 -49 6t-50 27q-25 -21 -45.5 -27t-37.5 -6h-253l-16 193h234q13 0 13 11z" />
    <glyph glyph-name="uni0630" unicode="&#x630;" horiz-adv-x="517" arabic-form="isolated" 
d="M116 396l137 132l176 -215q38 -45 49.5 -81t11.5 -67q0 -34 -11.5 -64t-34.5 -52.5t-58.5 -35.5t-83.5 -13h-264l-16 193h231q16 0 16 13q0 9 -11 23zM342 572h-182v137h182v-137z" />
    <glyph glyph-name="uniFEAC" unicode="&#x630;" horiz-adv-x="522" arabic-form="final" 
d="M269 204q0 4 -2 10t-9 23l-82 214l170 77l122 -319q6 -16 22 -16h32q6 0 10.5 -2.5t7 -11.5t3.5 -28t1 -52q0 -35 -1 -55t-3.5 -30t-7 -12t-10.5 -2h-49q-20 0 -49 6t-50 27q-25 -21 -45.5 -27t-37.5 -6h-253l-16 193h234q13 0 13 11zM385 572h-182v137h182v-137z" />
    <glyph glyph-name="uni0631" unicode="&#x631;" horiz-adv-x="253" arabic-form="isolated" 
d="M226 44q0 -56 -19 -106t-53 -87.5t-81.5 -59.5t-105.5 -22h-110l-17 192h105q54 0 76.5 22t22.5 55v320h182v-314z" />
    <glyph glyph-name="uniFEAE" unicode="&#x631;" horiz-adv-x="280" arabic-form="final" 
d="M226 207q0 -14 16 -14h38q6 0 10.5 -2.5t7 -11.5t3.5 -28t1 -52q0 -35 -1 -55t-3.5 -30t-7 -12t-10.5 -2h-16q-24 0 -42 3q-6 -49 -27 -91.5t-54 -74t-77.5 -50t-96.5 -18.5h-110l-17 192h105q54 0 76.5 22t22.5 55v320h182v-151z" />
    <glyph glyph-name="uni0632" unicode="&#x632;" horiz-adv-x="253" arabic-form="isolated" 
d="M226 44q0 -56 -19 -106t-53 -87.5t-81.5 -59.5t-105.5 -22h-110l-17 192h105q54 0 76.5 22t22.5 55v320h182v-314zM226 413h-182v137h182v-137z" />
    <glyph glyph-name="uniFEB0" unicode="&#x632;" horiz-adv-x="280" arabic-form="final" 
d="M226 207q0 -14 16 -14h38q6 0 10.5 -2.5t7 -11.5t3.5 -28t1 -52q0 -35 -1 -55t-3.5 -30t-7 -12t-10.5 -2h-16q-24 0 -42 3q-6 -49 -27 -91.5t-54 -74t-77.5 -50t-96.5 -18.5h-110l-17 192h105q54 0 76.5 22t22.5 55v320h182v-151zM226 413h-182v137h182v-137z" />
    <glyph glyph-name="uni0698" unicode="&#x698;" horiz-adv-x="253" arabic-form="isolated" 
d="M226 44q0 -56 -19 -106t-53 -87.5t-81.5 -59.5t-105.5 -22h-110l-17 192h105q54 0 76.5 22t22.5 55v320h182v-314zM203 578h-143v137h143v-137zM275 413h-286v137h286v-137z" />
    <glyph glyph-name="uniFB8B" unicode="&#x698;" horiz-adv-x="280" arabic-form="final" 
d="M226 207q0 -14 16 -14h38q6 0 10.5 -2.5t7 -11.5t3.5 -28t1 -52q0 -35 -1 -55t-3.5 -30t-7 -12t-10.5 -2h-16q-24 0 -42 3q-6 -49 -27 -91.5t-54 -74t-77.5 -50t-96.5 -18.5h-110l-17 192h105q54 0 76.5 22t22.5 55v320h182v-151zM203 578h-143v137h143v-137zM275 413
h-286v137h286v-137z" />
    <glyph glyph-name="uni0633" unicode="&#x633;" horiz-adv-x="1056" arabic-form="isolated" 
d="M820 209q0 -16 16 -16q7 0 12 4.5t5 11.5v149h175v-165q0 -50 -16 -86t-43 -60t-61.5 -35.5t-71.5 -11.5q-20 0 -49 6t-50 27q-25 -21 -47.5 -27t-35.5 -6q-20 0 -39.5 4t-31.5 12l27 45q0 -58 -18 -109t-52.5 -89.5t-84.5 -60.5t-114 -22h-50q-62 0 -110.5 19
t-82.5 54.5t-52 86.5t-18 115v209h181v-214q0 -38 22 -58t71 -20h33q54 0 77 22t23 56v308h175v-149q0 -7 5 -11.5t12 -4.5q16 0 16 16v149h177v-149z" />
    <glyph glyph-name="uniFEB2" unicode="&#x633;" horiz-adv-x="1083" arabic-form="final" 
d="M610 358v-149q0 -7 5 -11.5t12 -4.5q16 0 16 16v149h177v-149q0 -16 16 -16q7 0 12 4.5t5 11.5v149h175v-149q0 -7 5 -11.5t12 -4.5h38q6 0 10.5 -2.5t7 -11.5t3.5 -28t1 -52q0 -35 -1 -55t-3.5 -30t-7 -12t-10.5 -2h-31q-34 0 -59.5 6t-46.5 27q-25 -21 -53 -27t-57 -6
q-20 0 -49 6t-50 27q-25 -21 -47.5 -27t-35.5 -6q-20 0 -39.5 4t-31.5 12l27 45q0 -58 -18 -109t-52.5 -89.5t-84.5 -60.5t-114 -22h-50q-62 0 -110.5 19t-82.5 54.5t-52 86.5t-18 115v209h181v-214q0 -38 22 -58t71 -20h33q54 0 77 22t23 56v308h175z" />
    <glyph glyph-name="uniFEB4" unicode="&#x633;" horiz-adv-x="704" arabic-form="medial" 
d="M38 193q7 0 12 4.5t5 11.5v149h176v-149q0 -7 5 -11.5t12 -4.5q6 0 11 4.5t5 11.5v149h176v-149q0 -7 5 -11.5t12 -4.5q6 0 11 4.5t5 11.5v149h176v-149q0 -7 5 -11.5t11 -4.5h39q6 0 10.5 -2.5t7 -11.5t3.5 -28t1 -52q0 -35 -1 -55t-3.5 -30t-7 -12t-10.5 -2h-32
q-34 0 -59.5 6t-46.5 27q-25 -21 -52.5 -27t-56.5 -6q-21 0 -50 6t-49 27q-26 -21 -48.5 -27t-34.5 -6h-27q-21 0 -50 6t-50 27q-24 -21 -47 -27t-35 -6h-66q-6 0 -10.5 2t-7 11.5t-3.5 28.5t-1 52q0 35 1 55t3.5 29.5t7 12t10.5 2.5h38z" />
    <glyph glyph-name="uniFEB3" unicode="&#x633;" horiz-adv-x="676" arabic-form="initial" 
d="M38 193q7 0 12 4.5t5 11.5v149h176v-149q0 -7 5 -11.5t12 -4.5q6 0 11 4.5t5 11.5v149h176v-149q0 -7 5 -11.5t12 -4.5q6 0 11 4.5t5 11.5v149h176v-165q0 -50 -16 -86t-43 -60t-61.5 -35.5t-71.5 -11.5q-21 0 -50 6t-49 27q-26 -21 -48.5 -27t-34.5 -6h-27q-21 0 -50 6
t-50 27q-24 -21 -47 -27t-35 -6h-66q-6 0 -10.5 2t-7 11.5t-3.5 28.5t-1 52q0 35 1 55t3.5 29.5t7 12t10.5 2.5h38z" />
    <glyph glyph-name="uni0634" unicode="&#x634;" horiz-adv-x="1056" arabic-form="isolated" 
d="M820 209q0 -16 16 -16q7 0 12 4.5t5 11.5v149h175v-165q0 -50 -16 -86t-43 -60t-61.5 -35.5t-71.5 -11.5q-20 0 -49 6t-50 27q-25 -21 -47.5 -27t-35.5 -6q-20 0 -39.5 4t-31.5 12l27 45q0 -58 -18 -109t-52.5 -89.5t-84.5 -60.5t-114 -22h-50q-62 0 -110.5 19
t-82.5 54.5t-52 86.5t-18 115v209h181v-214q0 -38 22 -58t71 -20h33q54 0 77 22t23 56v308h175v-149q0 -7 5 -11.5t12 -4.5q16 0 16 16v149h177v-149zM797 578h-143v137h143v-137zM869 413h-286v137h286v-137z" />
    <glyph glyph-name="uniFEB6" unicode="&#x634;" horiz-adv-x="1083" arabic-form="final" 
d="M610 358v-149q0 -7 5 -11.5t12 -4.5q16 0 16 16v149h177v-149q0 -16 16 -16q7 0 12 4.5t5 11.5v149h175v-149q0 -7 5 -11.5t12 -4.5h38q6 0 10.5 -2.5t7 -11.5t3.5 -28t1 -52q0 -35 -1 -55t-3.5 -30t-7 -12t-10.5 -2h-31q-34 0 -59.5 6t-46.5 27q-25 -21 -53 -27t-57 -6
q-20 0 -49 6t-50 27q-25 -21 -47.5 -27t-35.5 -6q-20 0 -39.5 4t-31.5 12l27 45q0 -58 -18 -109t-52.5 -89.5t-84.5 -60.5t-114 -22h-50q-62 0 -110.5 19t-82.5 54.5t-52 86.5t-18 115v209h181v-214q0 -38 22 -58t71 -20h33q54 0 77 22t23 56v308h175zM797 578h-143v137h143
v-137zM869 413h-286v137h286v-137z" />
    <glyph glyph-name="uniFEB8" unicode="&#x634;" horiz-adv-x="704" arabic-form="medial" 
d="M38 193q7 0 12 4.5t5 11.5v149h176v-149q0 -7 5 -11.5t12 -4.5q6 0 11 4.5t5 11.5v149h176v-149q0 -7 5 -11.5t12 -4.5q6 0 11 4.5t5 11.5v149h176v-149q0 -7 5 -11.5t11 -4.5h39q6 0 10.5 -2.5t7 -11.5t3.5 -28t1 -52q0 -35 -1 -55t-3.5 -30t-7 -12t-10.5 -2h-32
q-34 0 -59.5 6t-46.5 27q-25 -21 -52.5 -27t-56.5 -6q-21 0 -50 6t-49 27q-26 -21 -48.5 -27t-34.5 -6h-27q-21 0 -50 6t-50 27q-24 -21 -47 -27t-35 -6h-66q-6 0 -10.5 2t-7 11.5t-3.5 28.5t-1 52q0 35 1 55t3.5 29.5t7 12t10.5 2.5h38zM412 578h-143v137h143v-137z
M484 413h-286v137h286v-137z" />
    <glyph glyph-name="uniFEB7" unicode="&#x634;" horiz-adv-x="676" arabic-form="initial" 
d="M38 193q7 0 12 4.5t5 11.5v149h176v-149q0 -7 5 -11.5t12 -4.5q6 0 11 4.5t5 11.5v149h176v-149q0 -7 5 -11.5t12 -4.5q6 0 11 4.5t5 11.5v149h176v-165q0 -50 -16 -86t-43 -60t-61.5 -35.5t-71.5 -11.5q-21 0 -50 6t-49 27q-26 -21 -48.5 -27t-34.5 -6h-27q-21 0 -50 6
t-50 27q-24 -21 -47 -27t-35 -6h-66q-6 0 -10.5 2t-7 11.5t-3.5 28.5t-1 52q0 35 1 55t3.5 29.5t7 12t10.5 2.5h38zM412 578h-143v137h143v-137zM484 413h-286v137h286v-137z" />
    <glyph glyph-name="uni0635" unicode="&#x635;" horiz-adv-x="1094" arabic-form="isolated" 
d="M616 242q64 96 130 141.5t134 45.5q41 0 75.5 -15.5t59 -43.5t38.5 -66.5t14 -83.5q0 -41 -12.5 -80.5t-39.5 -70.5t-68.5 -50t-99.5 -19h-193q-25 0 -48 5q-8 -48 -29 -89t-55 -71t-79.5 -47.5t-101.5 -17.5h-50q-62 0 -110.5 19t-82.5 54.5t-52 86.5t-18 115v209h181
v-214q0 -38 22 -58t71 -20h33q54 0 77 22t23 56v308h181v-116zM858 187q17 0 25 9.5t8 21.5q0 11 -8.5 20.5t-22.5 9.5t-35.5 -16t-54.5 -45h88z" />
    <glyph glyph-name="uniFEBA" unicode="&#x635;" horiz-adv-x="1122" arabic-form="final" 
d="M616 242q64 96 130 141.5t134 45.5q41 0 75.5 -15.5t59 -43.5t38.5 -66.5t14 -83.5v-12t-1 -12q5 -2 17 -2.5t17 -0.5h22q6 0 10 -2.5t7 -11.5t4 -28t1 -52q0 -35 -1 -55t-4 -30t-7 -12t-10 -2h-22q-29 0 -60.5 6t-62.5 29q-25 -17 -57 -26t-73 -9h-193q-25 0 -48 5
q-8 -48 -29 -89t-55 -71t-79.5 -47.5t-101.5 -17.5h-50q-62 0 -110.5 19t-82.5 54.5t-52 86.5t-18 115v209h181v-214q0 -38 22 -58t71 -20h33q54 0 77 22t23 56v308h181v-116zM858 187q17 0 25 9.5t8 21.5q0 11 -8.5 20.5t-22.5 9.5t-35.5 -16t-54.5 -45h88z" />
    <glyph glyph-name="uniFEBC" unicode="&#x635;" horiz-adv-x="743" arabic-form="medial" 
d="M38 193q7 0 12 4.5t5 11.5v149h182v-116q63 96 129 141.5t135 45.5q41 0 75 -15.5t59 -43.5t38.5 -66.5t13.5 -83.5v-12t-1 -12q5 -2 17.5 -2.5t17.5 -0.5h22q6 0 10 -2.5t7 -11.5t4 -28t1 -52q0 -35 -1 -55t-4 -30t-7 -12t-10 -2h-22q-29 0 -61 6t-63 29
q-25 -17 -57 -26t-72 -9h-220q-33 0 -61.5 6t-49.5 27q-24 -21 -48.5 -27t-44.5 -6h-44q-6 0 -10.5 2t-7 11.5t-3.5 28.5t-1 52q0 35 1 55t3.5 29.5t7 12t10.5 2.5h38zM479 187q17 0 25 9.5t8 21.5q0 11 -8.5 20.5t-22.5 9.5t-35.5 -16t-54.5 -45h88z" />
    <glyph glyph-name="uniFEBB" unicode="&#x635;" horiz-adv-x="715" arabic-form="initial" 
d="M38 193q7 0 12 4.5t5 11.5v149h182v-116q63 96 129 141.5t135 45.5q41 0 75 -15.5t59 -43.5t38.5 -66.5t13.5 -83.5q0 -41 -12.5 -80.5t-39.5 -70.5t-68.5 -50t-98.5 -19h-220q-33 0 -61.5 6t-49.5 27q-24 -21 -48.5 -27t-44.5 -6h-44q-6 0 -10.5 2t-7 11.5t-3.5 28.5
t-1 52q0 35 1 55t3.5 29.5t7 12t10.5 2.5h38zM479 187q17 0 25 9.5t8 21.5q0 11 -8.5 20.5t-22.5 9.5t-35.5 -16t-54.5 -45h88z" />
    <glyph glyph-name="uni0636" unicode="&#x636;" horiz-adv-x="1094" arabic-form="isolated" 
d="M616 242q64 96 130 141.5t134 45.5q41 0 75.5 -15.5t59 -43.5t38.5 -66.5t14 -83.5q0 -41 -12.5 -80.5t-39.5 -70.5t-68.5 -50t-99.5 -19h-193q-25 0 -48 5q-8 -48 -29 -89t-55 -71t-79.5 -47.5t-101.5 -17.5h-50q-62 0 -110.5 19t-82.5 54.5t-52 86.5t-18 115v209h181
v-214q0 -38 22 -58t71 -20h33q54 0 77 22t23 56v308h181v-116zM858 187q17 0 25 9.5t8 21.5q0 11 -8.5 20.5t-22.5 9.5t-35.5 -16t-54.5 -45h88zM947 484h-182v137h182v-137z" />
    <glyph glyph-name="uniFEBE" unicode="&#x636;" horiz-adv-x="1122" arabic-form="final" 
d="M616 242q64 96 130 141.5t134 45.5q41 0 75.5 -15.5t59 -43.5t38.5 -66.5t14 -83.5v-12t-1 -12q5 -2 17 -2.5t17 -0.5h22q6 0 10 -2.5t7 -11.5t4 -28t1 -52q0 -35 -1 -55t-4 -30t-7 -12t-10 -2h-22q-29 0 -60.5 6t-62.5 29q-25 -17 -57 -26t-73 -9h-193q-25 0 -48 5
q-8 -48 -29 -89t-55 -71t-79.5 -47.5t-101.5 -17.5h-50q-62 0 -110.5 19t-82.5 54.5t-52 86.5t-18 115v209h181v-214q0 -38 22 -58t71 -20h33q54 0 77 22t23 56v308h181v-116zM858 187q17 0 25 9.5t8 21.5q0 11 -8.5 20.5t-22.5 9.5t-35.5 -16t-54.5 -45h88zM947 484h-182
v137h182v-137z" />
    <glyph glyph-name="uniFEC0" unicode="&#x636;" horiz-adv-x="743" arabic-form="medial" 
d="M38 193q7 0 12 4.5t5 11.5v149h182v-116q63 96 129 141.5t135 45.5q41 0 75 -15.5t59 -43.5t38.5 -66.5t13.5 -83.5v-12t-1 -12q5 -2 17.5 -2.5t17.5 -0.5h22q6 0 10 -2.5t7 -11.5t4 -28t1 -52q0 -35 -1 -55t-4 -30t-7 -12t-10 -2h-22q-29 0 -61 6t-63 29
q-25 -17 -57 -26t-72 -9h-220q-33 0 -61.5 6t-49.5 27q-24 -21 -48.5 -27t-44.5 -6h-44q-6 0 -10.5 2t-7 11.5t-3.5 28.5t-1 52q0 35 1 55t3.5 29.5t7 12t10.5 2.5h38zM479 187q17 0 25 9.5t8 21.5q0 11 -8.5 20.5t-22.5 9.5t-35.5 -16t-54.5 -45h88zM567 484h-182v137h182
v-137z" />
    <glyph glyph-name="uniFEBF" unicode="&#x636;" horiz-adv-x="715" arabic-form="initial" 
d="M38 193q7 0 12 4.5t5 11.5v149h182v-116q63 96 129 141.5t135 45.5q41 0 75 -15.5t59 -43.5t38.5 -66.5t13.5 -83.5q0 -41 -12.5 -80.5t-39.5 -70.5t-68.5 -50t-98.5 -19h-220q-33 0 -61.5 6t-49.5 27q-24 -21 -48.5 -27t-44.5 -6h-44q-6 0 -10.5 2t-7 11.5t-3.5 28.5
t-1 52q0 35 1 55t3.5 29.5t7 12t10.5 2.5h38zM479 187q17 0 25 9.5t8 21.5q0 11 -8.5 20.5t-22.5 9.5t-35.5 -16t-54.5 -45h88zM567 484h-182v137h182v-137z" />
    <glyph glyph-name="uni0637" unicode="&#x637;" horiz-adv-x="577" arabic-form="isolated" 
d="M258 392q46 37 105 37q41 0 75.5 -15.5t59 -43.5t38.5 -66.5t14 -83.5q0 -41 -12.5 -80.5t-39.5 -70.5t-68.5 -50t-99.5 -19h-292l-16 193h55v417h181v-218zM341 187q17 0 25 9.5t8 21.5q0 11 -8.5 20.5t-22.5 9.5t-35.5 -16t-54.5 -45h88z" />
    <glyph glyph-name="uniFEC2" unicode="&#x637;" horiz-adv-x="605" arabic-form="final" 
d="M258 392q46 37 105 37q41 0 75.5 -15.5t59 -43.5t38.5 -66.5t14 -83.5v-12t-1 -12q5 -2 17 -2.5t17 -0.5h22q6 0 10 -2.5t7 -11.5t4 -28t1 -52q0 -35 -1 -55t-4 -30t-7 -12t-10 -2h-22q-29 0 -60.5 6t-62.5 29q-25 -17 -57 -26t-73 -9h-292l-16 193h55v417h181v-218z
M341 187q17 0 25 9.5t8 21.5q0 11 -8.5 20.5t-22.5 9.5t-35.5 -16t-54.5 -45h88z" />
    <glyph glyph-name="uniFEC4" unicode="&#x637;" horiz-adv-x="583" arabic-form="medial" 
d="M55 193v417h182v-218q44 37 104 37q41 0 75.5 -15.5t59 -43.5t38.5 -66.5t14 -83.5v-12t-1 -12q5 -2 17 -2.5t17 -0.5h22q6 0 10 -2.5t7 -11.5t4 -28t1 -52q0 -35 -1 -55t-4 -30t-7 -12t-10 -2h-22q-29 0 -60.5 6t-62.5 29q-25 -17 -57 -26t-73 -9h-308q-6 0 -10.5 2
t-7 11.5t-3.5 28.5t-1 52q0 35 1 55t3.5 29.5t7 12t10.5 2.5h55zM319 187q17 0 25 9.5t8 21.5q0 11 -8.5 20.5t-22.5 9.5t-35.5 -16t-54.5 -45h88z" />
    <glyph glyph-name="uniFEC3" unicode="&#x637;" horiz-adv-x="555" arabic-form="initial" 
d="M55 193v417h182v-218q44 37 104 37q41 0 75.5 -15.5t59 -43.5t38.5 -66.5t14 -83.5q0 -41 -12.5 -80.5t-39.5 -70.5t-68.5 -50t-99.5 -19h-308q-6 0 -10.5 2t-7 11.5t-3.5 28.5t-1 52q0 35 1 55t3.5 29.5t7 12t10.5 2.5h55zM319 187q17 0 25 9.5t8 21.5q0 11 -8.5 20.5
t-22.5 9.5t-35.5 -16t-54.5 -45h88z" />
    <glyph glyph-name="uni0638" unicode="&#x638;" horiz-adv-x="577" arabic-form="isolated" 
d="M258 392q46 37 105 37q41 0 75.5 -15.5t59 -43.5t38.5 -66.5t14 -83.5q0 -41 -12.5 -80.5t-39.5 -70.5t-68.5 -50t-99.5 -19h-292l-16 193h55v417h181v-218zM341 187q17 0 25 9.5t8 21.5q0 11 -8.5 20.5t-22.5 9.5t-35.5 -16t-54.5 -45h88zM501 484h-182v137h182v-137z
" />
    <glyph glyph-name="uniFEC6" unicode="&#x638;" horiz-adv-x="605" arabic-form="final" 
d="M258 392q46 37 105 37q41 0 75.5 -15.5t59 -43.5t38.5 -66.5t14 -83.5v-12t-1 -12q5 -2 17 -2.5t17 -0.5h22q6 0 10 -2.5t7 -11.5t4 -28t1 -52q0 -35 -1 -55t-4 -30t-7 -12t-10 -2h-22q-29 0 -60.5 6t-62.5 29q-25 -17 -57 -26t-73 -9h-292l-16 193h55v417h181v-218z
M341 187q17 0 25 9.5t8 21.5q0 11 -8.5 20.5t-22.5 9.5t-35.5 -16t-54.5 -45h88zM501 484h-182v137h182v-137z" />
    <glyph glyph-name="uniFEC8" unicode="&#x638;" horiz-adv-x="583" arabic-form="medial" 
d="M55 193v417h182v-218q44 37 104 37q41 0 75.5 -15.5t59 -43.5t38.5 -66.5t14 -83.5v-12t-1 -12q5 -2 17 -2.5t17 -0.5h22q6 0 10 -2.5t7 -11.5t4 -28t1 -52q0 -35 -1 -55t-4 -30t-7 -12t-10 -2h-22q-29 0 -60.5 6t-62.5 29q-25 -17 -57 -26t-73 -9h-308q-6 0 -10.5 2
t-7 11.5t-3.5 28.5t-1 52q0 35 1 55t3.5 29.5t7 12t10.5 2.5h55zM319 187q17 0 25 9.5t8 21.5q0 11 -8.5 20.5t-22.5 9.5t-35.5 -16t-54.5 -45h88zM479 484h-182v137h182v-137z" />
    <glyph glyph-name="uniFEC7" unicode="&#x638;" horiz-adv-x="555" arabic-form="initial" 
d="M55 193v417h182v-218q44 37 104 37q41 0 75.5 -15.5t59 -43.5t38.5 -66.5t14 -83.5q0 -41 -12.5 -80.5t-39.5 -70.5t-68.5 -50t-99.5 -19h-308q-6 0 -10.5 2t-7 11.5t-3.5 28.5t-1 52q0 35 1 55t3.5 29.5t7 12t10.5 2.5h55zM319 187q17 0 25 9.5t8 21.5q0 11 -8.5 20.5
t-22.5 9.5t-35.5 -16t-54.5 -45h88zM479 484h-182v137h182v-137z" />
    <glyph glyph-name="uni0639" unicode="&#x639;" horiz-adv-x="495" arabic-form="isolated" 
d="M121 127q-17 29 -22 51t-5 42q0 43 13 81t37.5 66.5t60.5 45t82 16.5q32 0 70.5 -10t88.5 -39l-55 -154q-38 12 -57.5 17t-36.5 5q-13 0 -23 -8t-10 -22q0 -10 5 -17.5t22 -7.5h177l-17 -193h-165q-42 0 -59.5 -18.5t-17.5 -47.5t22 -47.5t71 -18.5h177l-15 -193h-167
q-76 0 -127.5 19.5t-83 53.5t-45 80t-13.5 100q0 58 24 109.5t69 89.5z" />
    <glyph glyph-name="uniFECA" unicode="&#x639;" horiz-adv-x="561" arabic-form="final" 
d="M44 291l77 144h225q79 0 119.5 -36.5t40.5 -90.5q0 -38 -11.5 -62t-32.5 -53h99q6 0 10 -2.5t7 -11.5t4 -28t1 -52q0 -35 -1 -55t-4 -30t-7 -12t-10 -2h-110q-50 0 -94 4t-77 29q-32 -21 -51.5 -45.5t-19.5 -53.5t22 -47.5t71 -18.5h193l-14 -193h-184q-76 0 -127.5 19.5
t-83 53.5t-45 80t-13.5 100q0 63 26 117.5t83 108.5zM341 243q0 15 -22 15h-82l54 -65q25 20 37.5 30.5t12.5 19.5z" />
    <glyph glyph-name="uniFECC" unicode="&#x639;" horiz-adv-x="561" arabic-form="medial" 
d="M110 193l-66 98l77 144h225q79 0 119.5 -36.5t40.5 -90.5q0 -38 -11.5 -62t-32.5 -53h99q6 0 10 -2.5t7 -11.5t4 -28t1 -52q0 -35 -1 -55t-4 -30t-7 -12t-10 -2h-110q-50 0 -94 4t-77 29q-41 -25 -88.5 -29t-92.5 -4h-99q-6 0 -10.5 2t-7 11.5t-3.5 28.5t-1 52q0 35 1 55
t3.5 29.5t7 12t10.5 2.5h110zM341 243q0 15 -22 15h-82l54 -65q25 20 37.5 30.5t12.5 19.5z" />
    <glyph glyph-name="uniFECB" unicode="&#x639;" horiz-adv-x="457" arabic-form="initial" 
d="M57 193q-2 6 -2 13v14q0 43 13 81t38 66.5t61 45t82 16.5q32 0 70 -10t88 -39l-55 -154q-38 12 -57.5 17t-36.5 5q-12 0 -22 -8t-10 -22q0 -10 5 -17.5t22 -7.5h176l-16 -193h-413q-6 0 -10.5 2t-7 11.5t-3.5 28.5t-1 52q0 35 1 55t3.5 29.5t7 12t10.5 2.5h57z" />
    <glyph glyph-name="uni063A" unicode="&#x63a;" horiz-adv-x="495" arabic-form="isolated" 
d="M121 127q-17 29 -22 51t-5 42q0 43 13 81t37.5 66.5t60.5 45t82 16.5q32 0 70.5 -10t88.5 -39l-55 -154q-38 12 -57.5 17t-36.5 5q-13 0 -23 -8t-10 -22q0 -10 5 -17.5t22 -7.5h177l-17 -193h-165q-42 0 -59.5 -18.5t-17.5 -47.5t22 -47.5t71 -18.5h177l-15 -193h-167
q-76 0 -127.5 19.5t-83 53.5t-45 80t-13.5 100q0 58 24 109.5t69 89.5zM380 484h-182v137h182v-137z" />
    <glyph glyph-name="uniFECE" unicode="&#x63a;" horiz-adv-x="561" arabic-form="final" 
d="M44 291l77 144h225q79 0 119.5 -36.5t40.5 -90.5q0 -38 -11.5 -62t-32.5 -53h99q6 0 10 -2.5t7 -11.5t4 -28t1 -52q0 -35 -1 -55t-4 -30t-7 -12t-10 -2h-110q-50 0 -94 4t-77 29q-32 -21 -51.5 -45.5t-19.5 -53.5t22 -47.5t71 -18.5h193l-14 -193h-184q-76 0 -127.5 19.5
t-83 53.5t-45 80t-13.5 100q0 63 26 117.5t83 108.5zM341 243q0 15 -22 15h-82l54 -65q25 20 37.5 30.5t12.5 19.5zM385 490h-182v137h182v-137z" />
    <glyph glyph-name="uniFED0" unicode="&#x63a;" horiz-adv-x="561" arabic-form="medial" 
d="M110 193l-66 98l77 144h225q79 0 119.5 -36.5t40.5 -90.5q0 -38 -11.5 -62t-32.5 -53h99q6 0 10 -2.5t7 -11.5t4 -28t1 -52q0 -35 -1 -55t-4 -30t-7 -12t-10 -2h-110q-50 0 -94 4t-77 29q-41 -25 -88.5 -29t-92.5 -4h-99q-6 0 -10.5 2t-7 11.5t-3.5 28.5t-1 52q0 35 1 55
t3.5 29.5t7 12t10.5 2.5h110zM341 243q0 15 -22 15h-82l54 -65q25 20 37.5 30.5t12.5 19.5zM385 490h-182v137h182v-137z" />
    <glyph glyph-name="uniFECF" unicode="&#x63a;" horiz-adv-x="457" arabic-form="initial" 
d="M57 193q-2 6 -2 13v14q0 43 13 81t38 66.5t61 45t82 16.5q32 0 70 -10t88 -39l-55 -154q-38 12 -57.5 17t-36.5 5q-12 0 -22 -8t-10 -22q0 -10 5 -17.5t22 -7.5h176l-16 -193h-413q-6 0 -10.5 2t-7 11.5t-3.5 28.5t-1 52q0 35 1 55t3.5 29.5t7 12t10.5 2.5h57zM336 484
h-182v137h182v-137z" />
    <glyph glyph-name="uni0641" unicode="&#x641;" horiz-adv-x="803" arabic-form="isolated" 
d="M215 0q-52 0 -87.5 15.5t-57.5 41.5t-32 61.5t-10 74.5v165h181v-149q0 -7 5 -11.5t12 -4.5h159q-6 17 -8.5 33t-2.5 32q0 33 12.5 67.5t37.5 62t63.5 45.5t89.5 18q43 0 80 -12t63 -38t41 -68t15 -102v-38q0 -42 -13.5 -77t-41.5 -61t-70.5 -40.5t-100.5 -14.5h-335z
M599 187q5 8 5.5 20t0.5 24q0 17 -6.5 30.5t-26.5 13.5q-13 0 -20.5 -7.5t-7.5 -19.5t9 -28t46 -33zM666 506h-182v137h182v-137z" />
    <glyph glyph-name="uniFED2" unicode="&#x641;" horiz-adv-x="831" arabic-form="final" 
d="M380 193q-4 12 -5 27.5t-1 32.5q0 37 13.5 72.5t39 63.5t63.5 45t87 17q52 0 89.5 -17t62 -44.5t36 -62t11.5 -69.5q0 -20 -2.5 -36.5t-6.5 -28.5h64q6 0 10 -2.5t7 -11.5t4 -28t1 -52q0 -35 -1 -55t-4 -30t-7 -12t-10 -2h-133q-33 0 -62.5 2.5t-58.5 19.5
q-14 -8 -31 -12.5t-33.5 -6.5t-31 -2.5t-24.5 -0.5h-242q-52 0 -87.5 15.5t-57.5 41.5t-32 61.5t-10 74.5v165h181v-149q0 -7 5 -11.5t12 -4.5h154zM575 193q13 8 21.5 20t8.5 29q0 12 -8 22.5t-22 10.5q-15 0 -23 -10.5t-8 -22.5q0 -17 9 -29t22 -20zM666 506h-182v137h182
v-137z" />
    <glyph glyph-name="uniFED4" unicode="&#x641;" horiz-adv-x="512" arabic-form="medial" 
d="M61 193q-4 12 -5 27.5t-1 32.5q0 37 13.5 72.5t39 63.5t63.5 45t87 17q52 0 89.5 -17t62 -44.5t36 -62t11.5 -69.5q0 -20 -2.5 -36.5t-6.5 -28.5h64q6 0 10 -2.5t6.5 -11.5t3.5 -28t1 -52q0 -35 -1 -55t-3.5 -30t-6.5 -12t-10 -2h-132q-34 0 -63.5 2.5t-58.5 19.5
q-14 -8 -31 -12.5t-33.5 -6.5t-31.5 -2.5t-25 -0.5h-137q-6 0 -10.5 2t-7 11.5t-3.5 28.5t-1 52q0 35 1 55t3.5 29.5t7 12t10.5 2.5h61zM256 193q13 8 21.5 20t8.5 29q0 12 -8 22.5t-22 10.5t-22 -10.5t-8 -22.5q0 -17 8.5 -29t21.5 -20zM347 506h-182v137h182v-137z" />
    <glyph glyph-name="uniFED3" unicode="&#x641;" horiz-adv-x="484" arabic-form="initial" 
d="M66 193q-6 17 -8.5 33t-2.5 32q0 33 12.5 67.5t37.5 62t63.5 45.5t89.5 18q43 0 80 -12t63 -38t41 -68t15 -102v-38q0 -42 -13.5 -77t-41.5 -61t-70.5 -40.5t-100.5 -14.5h-231q-6 0 -10.5 2t-7 11.5t-3.5 28.5t-1 52q0 35 1 55t3.5 29.5t7 12t10.5 2.5h66zM280 187
q5 8 5.5 20t0.5 24q0 17 -6.5 30.5t-26.5 13.5q-12 0 -19.5 -7.5t-7.5 -19.5t8.5 -28t45.5 -33zM347 506h-182v137h182v-137z" />
    <glyph glyph-name="uni0642" unicode="&#x642;" horiz-adv-x="682" arabic-form="isolated" 
d="M435 -28q20 0 29 8.5t9 19.5h-16q-62 0 -102 14t-62.5 39.5t-31 62.5t-8.5 82q0 43 13 82t38.5 68.5t62 47t84.5 17.5q41 0 78 -12t64.5 -38.5t44 -68t16.5 -101.5v-143q0 -66 -18.5 -116.5t-52 -84.5t-80 -51.5t-101.5 -17.5h-111q-62 0 -110.5 19t-82.5 54.5t-52 86.5
t-18 115v209h181v-214q0 -38 22 -58t71 -20h133zM424 210q0 -16 6 -25t27 -9h27v28q0 38 -31 38q-29 0 -29 -32zM600 468h-286v137h286v-137z" />
    <glyph glyph-name="uniFED6" unicode="&#x642;" horiz-adv-x="710" arabic-form="final" 
d="M435 -28q20 0 29 8.5t9 19.5h-16q-62 0 -102 14t-62.5 39.5t-31 62.5t-8.5 82q0 43 13 82t38.5 68.5t62 47t84.5 17.5q41 0 78 -12t64.5 -38.5t44 -68t16.5 -101.5h56q6 0 10 -2.5t7 -11.5t4 -28t1 -52q0 -35 -1 -55t-4 -30t-7 -12t-10 -2h-59q-7 -54 -28 -95
t-53.5 -68.5t-75 -42t-92.5 -14.5h-111q-62 0 -110.5 19t-82.5 54.5t-52 86.5t-18 115v209h181v-214q0 -38 22 -58t71 -20h133zM424 210q0 -16 6 -25t27 -9h27v28q0 38 -31 38q-29 0 -29 -32zM600 468h-286v137h286v-137z" />
    <glyph glyph-name="uniFED8" unicode="&#x642;" horiz-adv-x="512" arabic-form="medial" 
d="M61 193q-4 12 -5 27.5t-1 32.5q0 37 13.5 72.5t39 63.5t63.5 45t87 17q52 0 89.5 -17t62 -44.5t36 -62t11.5 -69.5q0 -20 -2.5 -36.5t-6.5 -28.5h64q6 0 10 -2.5t6.5 -11.5t3.5 -28t1 -52q0 -35 -1 -55t-3.5 -30t-6.5 -12t-10 -2h-132q-34 0 -63.5 2.5t-58.5 19.5
q-14 -8 -31 -12.5t-33.5 -6.5t-31.5 -2.5t-25 -0.5h-137q-6 0 -10.5 2t-7 11.5t-3.5 28.5t-1 52q0 35 1 55t3.5 29.5t7 12t10.5 2.5h61zM256 193q13 8 21.5 20t8.5 29q0 12 -8 22.5t-22 10.5t-22 -10.5t-8 -22.5q0 -17 8.5 -29t21.5 -20zM396 506h-286v137h286v-137z" />
    <glyph glyph-name="uniFED7" unicode="&#x642;" horiz-adv-x="484" arabic-form="initial" 
d="M66 193q-6 17 -8.5 33t-2.5 32q0 33 12.5 67.5t37.5 62t63.5 45.5t89.5 18q43 0 80 -12t63 -38t41 -68t15 -102v-38q0 -42 -13.5 -77t-41.5 -61t-70.5 -40.5t-100.5 -14.5h-231q-6 0 -10.5 2t-7 11.5t-3.5 28.5t-1 52q0 35 1 55t3.5 29.5t7 12t10.5 2.5h66zM280 187
q5 8 5.5 20t0.5 24q0 17 -6.5 30.5t-26.5 13.5q-12 0 -19.5 -7.5t-7.5 -19.5t8.5 -28t45.5 -33zM396 506h-286v137h286v-137z" />
    <glyph glyph-name="uni06A9" unicode="&#x6a9;" horiz-adv-x="776" arabic-form="isolated" 
d="M495 193q17 0 17 13q0 8 -11 20l-182 181v132l391 143l44 -181l-193 -72l77 -77q27 -27 44 -49.5t27 -43t13.5 -40.5t3.5 -43q0 -47 -14.5 -80.5t-40 -54.5t-59.5 -31t-73 -10h-324q-52 0 -87.5 15.5t-57.5 41.5t-32 61.5t-10 74.5v165h181v-149q0 -7 5 -11.5t12 -4.5
h269z" />
    <glyph glyph-name="uniFB8F" unicode="&#x6a9;" horiz-adv-x="880" arabic-form="final" 
d="M215 0q-52 0 -87.5 15.5t-57.5 41.5t-32 61.5t-10 74.5v165h181v-149q0 -7 5 -11.5t12 -4.5h269q17 0 17 13q0 8 -11 20l-182 181v132l391 143l44 -181l-193 -72l77 -77q54 -54 89.5 -85.5t60.5 -48t42 -21t34 -4.5h16q6 0 10.5 -2.5t7 -11.5t3.5 -28t1 -52q0 -35 -1 -55
t-3.5 -30t-7 -12t-10.5 -2h-16q-35 0 -61 1.5t-46.5 7t-38 16.5t-36.5 30q-26 -29 -62 -42t-81 -13h-324z" />
    <glyph glyph-name="uniFB91" unicode="&#x6a9;" horiz-adv-x="583" arabic-form="medial" 
d="M198 193q17 0 17 13q0 8 -11 20l-182 181v132l391 143l44 -181l-193 -72l77 -77q54 -54 89.5 -85.5t60 -48t41.5 -21t34 -4.5h17q6 0 10 -2.5t7 -11.5t4 -28t1 -52q0 -35 -1 -55t-4 -30t-7 -12t-10 -2h-17q-35 0 -60.5 1.5t-46 7t-38 16.5t-36.5 30q-26 -29 -62 -42
t-81 -13h-242q-6 0 -10.5 2t-7 11.5t-3.5 28.5t-1 52q0 35 1 55t3.5 29.5t7 12t10.5 2.5h198z" />
    <glyph glyph-name="uniFB90" unicode="&#x6a9;" horiz-adv-x="479" arabic-form="initial" 
d="M198 193q17 0 17 13q0 8 -11 20l-182 181v132l391 143l44 -181l-193 -72l77 -77q27 -27 44 -49.5t27 -43t13.5 -40.5t3.5 -43q0 -47 -14.5 -80.5t-40 -54.5t-59.5 -31t-73 -10h-242q-6 0 -10.5 2t-7 11.5t-3.5 28.5t-1 52q0 35 1 55t3.5 29.5t7 12t10.5 2.5h198z" />
    <glyph glyph-name="uni0643" unicode="&#x643;" horiz-adv-x="715" arabic-form="isolated" 
d="M215 0q-52 0 -87.5 15.5t-57.5 41.5t-32 61.5t-10 74.5v165h181v-149q0 -7 5 -11.5t12 -4.5h258q7 0 12 4.5t5 11.5v401h181v-417q0 -48 -13.5 -84t-38 -60t-57.5 -36.5t-72 -12.5h-286zM275 291v133h-127v153h215q38 0 55 -19.5t17 -56.5v-210h-160z" />
    <glyph glyph-name="uniFEDA" unicode="&#x643;" horiz-adv-x="737" arabic-form="final" 
d="M215 0q-52 0 -87.5 15.5t-57.5 41.5t-32 61.5t-10 74.5v165h181v-149q0 -7 5 -11.5t12 -4.5h258q7 0 12 4.5t5 11.5v401h181v-401q0 -7 5 -11.5t11 -4.5h39q6 0 10.5 -2.5t7 -11.5t3.5 -28t1 -52q0 -35 -1 -55t-3.5 -30t-7 -12t-10.5 -2h-32q-34 0 -62.5 6t-48.5 27
q-25 -21 -49 -27t-44 -6h-286zM275 291v133h-127v153h215q38 0 55 -19.5t17 -56.5v-210h-160z" />
    <glyph glyph-name="uni06AF" unicode="&#x6af;" horiz-adv-x="776" arabic-form="isolated" 
d="M320 689l362 131l23 -108l-385 -141v118zM495 193q17 0 17 13q0 8 -11 20l-182 181v132l391 143l44 -181l-193 -72l77 -77q27 -27 44 -49.5t27 -43t13.5 -40.5t3.5 -43q0 -47 -14.5 -80.5t-40 -54.5t-59.5 -31t-73 -10h-324q-52 0 -87.5 15.5t-57.5 41.5t-32 61.5
t-10 74.5v165h181v-149q0 -7 5 -11.5t12 -4.5h269z" />
    <glyph glyph-name="uniFB93" unicode="&#x6af;" horiz-adv-x="880" arabic-form="final" 
d="M320 689l362 131l23 -108l-385 -141v118zM215 0q-52 0 -87.5 15.5t-57.5 41.5t-32 61.5t-10 74.5v165h181v-149q0 -7 5 -11.5t12 -4.5h269q17 0 17 13q0 8 -11 20l-182 181v132l391 143l44 -181l-193 -72l77 -77q54 -54 89.5 -85.5t60.5 -48t42 -21t34 -4.5h16
q6 0 10.5 -2.5t7 -11.5t3.5 -28t1 -52q0 -35 -1 -55t-3.5 -30t-7 -12t-10.5 -2h-16q-35 0 -61 1.5t-46.5 7t-38 16.5t-36.5 30q-26 -29 -62 -42t-81 -13h-324z" />
    <glyph glyph-name="uniFB95" unicode="&#x6af;" horiz-adv-x="566" arabic-form="medial" 
d="M22 689l362 131l23 -108l-385 -141v118zM198 193q17 0 17 13q0 8 -11 20l-182 181v132l391 143l44 -181l-193 -72l77 -77q54 -54 89.5 -85.5t60 -48t41.5 -21t34 -4.5h17q6 0 10 -2.5t7 -11.5t4 -28t1 -52q0 -35 -1 -55t-4 -30t-7 -12t-10 -2h-17q-35 0 -60.5 1.5t-46 7
t-38 16.5t-36.5 30q-26 -29 -62 -42t-81 -13h-242q-6 0 -10.5 2t-7 11.5t-3.5 28.5t-1 52q0 35 1 55t3.5 29.5t7 12t10.5 2.5h198z" />
    <glyph glyph-name="uniFB94" unicode="&#x6af;" horiz-adv-x="462" arabic-form="initial" 
d="M22 689l362 131l23 -108l-385 -141v118zM198 193q17 0 17 13q0 8 -11 20l-182 181v132l391 143l44 -181l-193 -72l77 -77q27 -27 44 -49.5t27 -43t13.5 -40.5t3.5 -43q0 -47 -14.5 -80.5t-40 -54.5t-59.5 -31t-73 -10h-242q-6 0 -10.5 2t-7 11.5t-3.5 28.5t-1 52
q0 35 1 55t3.5 29.5t7 12t10.5 2.5h198z" />
    <glyph glyph-name="uni0644" unicode="&#x644;" horiz-adv-x="649" arabic-form="isolated" 
d="M291 -220q-62 0 -110.5 19t-82.5 54.5t-52 86.5t-18 115v209h181v-214q0 -38 22 -58t71 -20h33q54 0 77 22t23 56v560h181v-549q0 -58 -19 -109t-54.5 -89.5t-86.5 -60.5t-115 -22h-50z" />
    <glyph glyph-name="uniFEDE" unicode="&#x644;" horiz-adv-x="671" arabic-form="final" 
d="M291 -220q-62 0 -110.5 19t-82.5 54.5t-52 86.5t-18 115v209h181v-214q0 -38 22 -58t71 -20h33q54 0 77 22t23 56v560h181v-403q2 -14 16 -14h39q6 0 10 -2.5t7 -11.5t4 -28t1 -52q0 -35 -1 -55t-4 -30t-7 -12t-10 -2q-18 0 -33 0.5t-28 1.5q-9 -47 -31 -87.5
t-56.5 -70.5t-80 -47t-101.5 -17h-50z" />
    <glyph glyph-name="uniFEE0" unicode="&#x644;" horiz-adv-x="291" arabic-form="medial" 
d="M38 193q7 0 12 4.5t5 11.5v401h182v-401q0 -16 16 -16h38q6 0 10.5 -2.5t7 -11.5t3.5 -28t1 -52q0 -35 -1 -55t-3.5 -30t-7 -12t-10.5 -2h-31q-34 0 -62.5 6t-49.5 27q-24 -21 -48.5 -27t-44.5 -6h-55q-6 0 -10.5 2t-7 11.5t-3.5 28.5t-1 52q0 35 1 55t3.5 29.5t7 12
t10.5 2.5h38z" />
    <glyph glyph-name="uniFEDF" unicode="&#x644;" horiz-adv-x="269" arabic-form="initial" 
d="M38 193q7 0 12 4.5t5 11.5v401h182v-417q0 -50 -14 -86t-38 -60t-57.5 -35.5t-72.5 -11.5h-55q-6 0 -10.5 2t-7 11.5t-3.5 28.5t-1 52q0 35 1 55t3.5 29.5t7 12t10.5 2.5h38z" />
    <glyph glyph-name="uni0645" unicode="&#x645;" horiz-adv-x="660" arabic-form="isolated" 
d="M242 209q0 14 0.5 21t2.5 12h-19q-7 0 -12 -5t-5 -11v-435h-181v424q0 41 11.5 78.5t37 66.5t65 46.5t95.5 17.5h209q53 0 89 -14.5t57.5 -40t30.5 -59.5t9 -73v-50q0 -50 -17 -85t-45.5 -58t-65 -33.5t-75.5 -10.5q-41 0 -75.5 11.5t-59.5 34t-38.5 57t-13.5 79.5v27z
M435 176q11 0 19 5t8 17v28q0 12 -8.5 17t-18.5 5q-11 0 -19.5 -5t-8.5 -17v-28q0 -12 8.5 -17t19.5 -5z" />
    <glyph glyph-name="uniFEE2" unicode="&#x645;" horiz-adv-x="687" arabic-form="final" 
d="M687 0q-38 0 -74 5t-64 25q-26 -16 -57 -23t-63 -7q-41 0 -75.5 11.5t-59.5 34t-38.5 57t-13.5 79.5v27q0 14 0.5 21t2.5 12h-19q-7 0 -12 -5t-5 -11v-435h-181v424q0 41 11.5 78.5t37 66.5t65 46.5t95.5 17.5h209q53 0 89 -14.5t57.5 -40t30.5 -59.5t9 -73v-28
q0 -7 5 -11.5t12 -4.5h38q6 0 10.5 -2.5t7.5 -11.5t4 -28t1 -52q0 -35 -1 -55t-4 -30t-7.5 -12t-10.5 -2zM435 176q11 0 19 5t8 17v28q0 12 -8.5 17t-18.5 5q-11 0 -19.5 -5t-8.5 -17v-28q0 -12 8.5 -17t19.5 -5z" />
    <glyph glyph-name="uniFEE4" unicode="&#x645;" horiz-adv-x="506" arabic-form="medial" 
d="M55 209q0 100 53.5 157.5t146.5 57.5q98 0 147 -57t49 -152v-6q0 -7 5 -11.5t12 -4.5h38q6 0 10 -2.5t7 -11.5t4 -28t1 -52q0 -35 -1 -55t-4 -30t-7 -12t-10 -2q-40 0 -76 5.5t-65 25.5q-50 -31 -117 -31q-29 0 -57 8t-48 25q-12 -11 -25.5 -17t-30 -10t-37.5 -5t-50 -1
q-6 0 -10.5 2t-7 11.5t-3.5 28.5t-1 52q0 35 1 55t3.5 29.5t7 12t10.5 2.5h38q7 0 12 4.5t5 11.5zM220 215q0 -21 9 -27t22 -6q11 0 20 6t9 27q0 33 -29 33q-31 0 -31 -33z" />
    <glyph glyph-name="uniFEE3" unicode="&#x645;" horiz-adv-x="479" arabic-form="initial" 
d="M38 193q7 0 12 4.5t5 11.5q0 100 53.5 157.5t146.5 57.5q98 0 147 -57t49 -152q0 -100 -54 -157.5t-149 -57.5q-29 0 -57 8t-48 25q-12 -11 -25.5 -17t-30 -10t-37.5 -5t-50 -1q-6 0 -10.5 2t-7 11.5t-3.5 28.5t-1 52q0 35 1 55t3.5 29.5t7 12t10.5 2.5h38zM220 215
q0 -21 9 -27t22 -6q11 0 20 6t9 27q0 33 -29 33q-31 0 -31 -33z" />
    <glyph glyph-name="uni0646" unicode="&#x646;" horiz-adv-x="643" arabic-form="isolated" 
d="M291 -220q-62 0 -110.5 19t-82.5 54.5t-52 86.5t-18 115v209h181v-214q0 -38 22 -58t71 -20h33q54 0 77 22t23 56v308h181v-297q0 -58 -19 -109t-54.5 -89.5t-86.5 -60.5t-115 -22h-50zM380 324h-182v137h182v-137z" />
    <glyph glyph-name="uniFEE6" unicode="&#x646;" horiz-adv-x="671" arabic-form="final" 
d="M616 207q0 -6 5 -10t11 -4h39q6 0 10 -2.5t7 -11.5t4 -28t1 -52q0 -35 -1 -55t-4 -30t-7 -12t-10 -2h-17q-12 0 -24 0.5t-20 2.5q-8 -47 -30 -88t-56.5 -71t-80.5 -47t-102 -17h-50q-62 0 -110.5 19t-82.5 54.5t-52 86.5t-18 115v209h181v-214q0 -38 22 -58t71 -20h33
q54 0 77 22t23 56v308h181v-151zM380 324h-182v137h182v-137z" />
    <glyph glyph-name="uniFEE8" unicode="&#x646;" horiz-adv-x="291" arabic-form="medial" 
d="M38 193q7 0 12 4.5t5 11.5v149h182v-149q0 -16 16 -16h38q6 0 10.5 -2.5t7 -11.5t3.5 -28t1 -52q0 -35 -1 -55t-3.5 -30t-7 -12t-10.5 -2h-31q-34 0 -62.5 6t-49.5 27q-24 -21 -48.5 -27t-44.5 -6h-55q-6 0 -10.5 2t-7 11.5t-3.5 28.5t-1 52q0 35 1 55t3.5 29.5t7 12
t10.5 2.5h38zM237 413h-182v137h182v-137z" />
    <glyph glyph-name="uniFEE7" unicode="&#x646;" horiz-adv-x="286" arabic-form="initial" 
d="M61 193q6 0 11 4.5t5 11.5v149h181v-165q0 -48 -13.5 -84t-37.5 -60t-57.5 -36.5t-72.5 -12.5h-77q-6 0 -10.5 2t-7 11.5t-3.5 28.5t-1 52q0 35 1 55t3.5 29.5t7 12t10.5 2.5h61zM259 413h-182v137h182v-137z" />
    <glyph glyph-name="uni0648" unicode="&#x648;" horiz-adv-x="473" arabic-form="isolated" 
d="M446 22q0 -66 -18.5 -116.5t-52.5 -84.5t-80.5 -51.5t-101.5 -17.5h-149l-11 193h171q33 0 46.5 13t13.5 42h-16q-62 0 -102 14t-62.5 39.5t-31 62.5t-8.5 82q0 43 13 82t38.5 68.5t62.5 47t84 17.5q41 0 78 -12t65 -38.5t44.5 -68t16.5 -101.5v-171zM215 210
q0 -16 6 -25t27 -9h27v28q0 38 -31 38q-29 0 -29 -32z" />
    <glyph glyph-name="uniFEEE" unicode="&#x648;" horiz-adv-x="501" arabic-form="final" 
d="M501 193q6 0 10 -2.5t6.5 -11.5t3.5 -28t1 -52q0 -35 -1 -55t-3.5 -30t-6.5 -12t-10 -2h-57q-3 -61 -22.5 -107t-52.5 -77.5t-78 -47.5t-98 -16h-149l-11 193h171q33 0 46.5 13t13.5 42h-16q-62 0 -102 14t-62.5 39.5t-31 62.5t-8.5 82q0 43 13 82t38.5 68.5t62.5 47
t84 17.5q41 0 78 -12t65 -38.5t44.5 -68t16.5 -101.5h55zM215 210q0 -16 6 -25t27 -9h27v28q0 38 -31 38q-29 0 -29 -32z" />
    <glyph glyph-name="uni0624" unicode="&#x624;" horiz-adv-x="473" arabic-form="isolated" 
d="M446 22q0 -66 -18.5 -116.5t-52.5 -84.5t-80.5 -51.5t-101.5 -17.5h-149l-11 193h171q33 0 46.5 13t13.5 42h-16q-62 0 -102 14t-62.5 39.5t-31 62.5t-8.5 82q0 43 13 82t38.5 68.5t62.5 47t84 17.5q41 0 78 -12t65 -38.5t44.5 -68t16.5 -101.5v-171zM215 210
q0 -16 6 -25t27 -9h27v28q0 38 -31 38q-29 0 -29 -32zM93 517l51 28q-20 16 -30 39.5t-10 48.5q0 20 7 40.5t21 37t34.5 27t47.5 10.5h88l-16 -110h-50q-11 0 -19 -5.5t-8 -16.5q0 -9 6 -15.5t14 -6.5q14 0 34.5 9t61.5 32l43 -101l-225 -116z" />
    <glyph glyph-name="uniFE86" unicode="&#x624;" horiz-adv-x="501" arabic-form="final" 
d="M501 193q6 0 10 -2.5t6.5 -11.5t3.5 -28t1 -52q0 -35 -1 -55t-3.5 -30t-6.5 -12t-10 -2h-57q-3 -61 -22.5 -107t-52.5 -77.5t-78 -47.5t-98 -16h-149l-11 193h171q33 0 46.5 13t13.5 42h-16q-62 0 -102 14t-62.5 39.5t-31 62.5t-8.5 82q0 43 13 82t38.5 68.5t62.5 47
t84 17.5q41 0 78 -12t65 -38.5t44.5 -68t16.5 -101.5h55zM215 210q0 -16 6 -25t27 -9h27v28q0 38 -31 38q-29 0 -29 -32zM93 517l51 28q-20 16 -30 39.5t-10 48.5q0 20 7 40.5t21 37t34.5 27t47.5 10.5h88l-16 -110h-50q-11 0 -19 -5.5t-8 -16.5q0 -9 6 -15.5t14 -6.5
q14 0 34.5 9t61.5 32l43 -101l-225 -116z" />
    <glyph glyph-name="uni0647" unicode="&#x647;" horiz-adv-x="462" arabic-form="isolated" 
d="M28 193q0 49 20 92.5t62 94.5l-42 44l128 126q77 -70 124 -121.5t72.5 -92t34 -74.5t8.5 -69q0 -42 -16 -77t-43.5 -61t-66 -40.5t-83.5 -14.5t-82 14t-62.5 39t-39.5 60.5t-14 79.5zM264 211q0 28 -33 58q-33 -32 -33 -58q0 -29 33 -29t33 29z" />
    <glyph glyph-name="uniFEEA" unicode="&#x647;" horiz-adv-x="484" arabic-form="final" 
d="M429 209q0 -7 5 -11.5t12 -4.5h38q6 0 10.5 -2.5t7 -11.5t3.5 -28t1 -52q0 -35 -1 -55t-3.5 -30t-7 -12t-10.5 -2h-44q-37 0 -70.5 14.5t-50.5 56.5q-25 -20 -51.5 -26.5t-63.5 -6.5q-39 0 -71.5 11.5t-56 36t-36 62t-12.5 89.5q0 39 13.5 77.5t38 68.5t60 49t80.5 19h28
v61h181v-303zM198 242q0 -17 7.5 -22t20.5 -5q17 0 24.5 7.5t7.5 19.5v33h-27q-33 0 -33 -33z" />
    <glyph glyph-name="uniFEEC" unicode="&#x647;" horiz-adv-x="528" arabic-form="medial" 
d="M55 193v22q0 35 8.5 73.5t31 71t60.5 54t98 21.5q45 0 80 -14.5t59 -40.5t36 -61.5t12 -76.5q0 -14 -2.5 -31t-8.5 -35q35 17 99 17q6 0 10 -2.5t7 -11.5t4 -28t1 -52q0 -35 -1 -55t-4 -30t-7 -12t-10 -2q-8 0 -17.5 -1.5t-21.5 -9t-27.5 -24.5t-37.5 -48l-94 -132h-99
q-37 0 -69 11.5t-56 35t-37.5 59.5t-13.5 84v25h-55q-6 0 -10.5 2t-7 11.5t-3.5 28.5t-1 52q0 35 1 55t3.5 29.5t7 12t10.5 2.5h55zM275 226q0 17 -7.5 24.5t-19.5 7.5q-28 0 -28 -37v-34h11q20 0 32 11t12 28zM220 5q0 -25 5.5 -37t22.5 -12l40 62q-16 -6 -32.5 -9.5
t-35.5 -3.5z" />
    <glyph glyph-name="uniFEEB" unicode="&#x647;" horiz-adv-x="698" arabic-form="initial" 
d="M61 193q-6 16 -6 49q0 35 15 68.5t42 60t65.5 42.5t86.5 16q27 0 48 -7l101 100l200 -212q34 -36 46 -69.5t12 -64.5q0 -37 -13 -69t-38 -56t-60.5 -37.5t-80.5 -13.5h-121q-34 0 -62.5 1.5t-53.5 9.5q-33 -8 -70 -9.5t-62 -1.5h-110q-6 0 -10.5 2t-7 11.5t-3.5 28.5
t-1 52q0 35 1 55t3.5 29.5t7 12t10.5 2.5h61zM245 187q13 8 21.5 20.5t8.5 29.5q0 12 -8 22t-22 10t-22 -10t-8 -22q0 -17 8.5 -29.5t21.5 -20.5zM484 207q0 4 -2 7.5t-7 9.5t-15 15.5t-25 24.5v-6q0 -20 -3.5 -36.5t-7.5 -28.5h38q13 0 17.5 3.5t4.5 10.5z" />
    <glyph glyph-name="uni0629" unicode="&#x629;" horiz-adv-x="462" arabic-form="isolated" 
d="M28 193q0 49 20 92.5t62 94.5l-42 44l128 126q77 -70 124 -121.5t72.5 -92t34 -74.5t8.5 -69q0 -42 -16 -77t-43.5 -61t-66 -40.5t-83.5 -14.5t-82 14t-62.5 39t-39.5 60.5t-14 79.5zM264 211q0 28 -33 58q-33 -32 -33 -58q0 -29 33 -29t33 29zM363 572h-286v137h286
v-137z" />
    <glyph glyph-name="uniFE94" unicode="&#x629;" horiz-adv-x="484" arabic-form="final" 
d="M429 209q0 -7 5 -11.5t12 -4.5h38q6 0 10.5 -2.5t7 -11.5t3.5 -28t1 -52q0 -35 -1 -55t-3.5 -30t-7 -12t-10.5 -2h-44q-37 0 -70.5 14.5t-50.5 56.5q-25 -20 -51.5 -26.5t-63.5 -6.5q-39 0 -71.5 11.5t-56 36t-36 62t-12.5 89.5q0 39 13.5 77.5t38 68.5t60 49t80.5 19h28
v61h181v-303zM198 242q0 -17 7.5 -22t20.5 -5q17 0 24.5 7.5t7.5 19.5v33h-27q-33 0 -33 -33zM418 566h-286v137h286v-137z" />
    <glyph glyph-name="uni06C0" unicode="&#x6c0;" horiz-adv-x="462" arabic-form="isolated" 
d="M168 721q-5 -8 -7 -13t-2 -10q0 -11 15 -11h211l-11 -115h-209q-57 0 -86 28.5t-29 70.5q0 13 2.5 27t9 31.5t18.5 39.5t30 51h176l-11 -99h-107zM28 193q0 49 20 92.5t62 94.5l-42 44l128 126q77 -70 124 -121.5t72.5 -92t34 -74.5t8.5 -69q0 -42 -16 -77t-43.5 -61
t-66 -40.5t-83.5 -14.5t-82 14t-62.5 39t-39.5 60.5t-14 79.5zM264 211q0 28 -33 58q-33 -32 -33 -58q0 -29 33 -29t33 29z" />
    <glyph glyph-name="uniFBA5" unicode="&#x6c0;" horiz-adv-x="484" arabic-form="final" 
d="M218 654q-5 -8 -7 -12.5t-2 -9.5q0 -11 14 -11h212l-11 -115h-209q-57 0 -86.5 28.5t-29.5 70.5q0 13 2.5 27t9 31t18.5 39.5t30 51.5h176l-11 -100h-106zM429 209q0 -7 5 -11.5t12 -4.5h38q6 0 10.5 -2.5t7 -11.5t3.5 -28t1 -52q0 -35 -1 -55t-3.5 -30t-7 -12t-10.5 -2
h-44q-37 0 -70.5 14.5t-50.5 56.5q-25 -20 -51.5 -26.5t-63.5 -6.5q-39 0 -71.5 11.5t-56 36t-36 62t-12.5 89.5q0 39 13.5 77.5t38 68.5t60 49t80.5 19h209v-242zM198 242q0 -17 7.5 -22t20.5 -5q17 0 24.5 7.5t7.5 19.5v33h-27q-33 0 -33 -33z" />
    <glyph glyph-name="uni06CC" unicode="&#x6cc;" horiz-adv-x="671" arabic-form="isolated" 
d="M462 11q0 7 -5 12t-11 5h-193v203q0 45 14 82.5t39.5 64.5t62.5 42t82 15h159l11 -187h-170q-7 0 -11.5 -5t-4.5 -12v-16h33q49 0 82.5 -13t54 -35.5t29.5 -54t9 -68.5q0 -54 -20.5 -102t-57.5 -84t-88.5 -57t-113.5 -21h-72q-62 0 -110.5 19t-82.5 54.5t-52 86.5
t-18 115v209h181v-214q0 -38 22 -58t71 -20h72q50 0 69 11t19 28z" />
    <glyph glyph-name="uniFBFD" unicode="&#x6cc;" horiz-adv-x="682" arabic-form="final" 
d="M280 16l17 177h385q6 0 10 -2.5t7 -11.5t4 -28t1 -52q0 -35 -1 -55t-4 -30t-7 -12t-10 -2h-45q-4 -49 -24.5 -89.5t-55.5 -69.5t-84 -45t-110 -16h-72q-62 0 -110.5 19t-82.5 54.5t-52 86.5t-18 115v209h181v-214q0 -38 22 -58t71 -20h89q29 0 50 5.5t21 22.5
q0 16 -16 16h-166z" />
    <glyph glyph-name="uniFBFF" unicode="&#x6cc;" horiz-adv-x="291" arabic-form="medial" 
d="M38 193q7 0 12 4.5t5 11.5v149h182v-149q0 -16 16 -16h38q6 0 10.5 -2.5t7 -11.5t3.5 -28t1 -52q0 -35 -1 -55t-3.5 -30t-7 -12t-10.5 -2h-31q-34 0 -62.5 6t-49.5 27q-24 -21 -48.5 -27t-44.5 -6h-55q-6 0 -10.5 2t-7 11.5t-3.5 28.5t-1 52q0 35 1 55t3.5 29.5t7 12
t10.5 2.5h38zM286 -192h-286v138h286v-138z" />
    <glyph glyph-name="uniFBFE" unicode="&#x6cc;" horiz-adv-x="286" arabic-form="initial" 
d="M61 193q6 0 11 4.5t5 11.5v149h181v-165q0 -48 -13.5 -84t-37.5 -60t-57.5 -36.5t-72.5 -12.5h-77q-6 0 -10.5 2t-7 11.5t-3.5 28.5t-1 52q0 35 1 55t3.5 29.5t7 12t10.5 2.5h61zM286 -192h-286v138h286v-138z" />
    <glyph glyph-name="uni064A" unicode="&#x64a;" horiz-adv-x="671" arabic-form="isolated" 
d="M462 11q0 7 -5 12t-11 5h-193v203q0 45 14 82.5t39.5 64.5t62.5 42t82 15h159l11 -187h-170q-7 0 -11.5 -5t-4.5 -12v-16h33q49 0 82.5 -13t54 -35.5t29.5 -54t9 -68.5q0 -54 -20.5 -102t-57.5 -84t-88.5 -57t-113.5 -21h-72q-62 0 -110.5 19t-82.5 54.5t-52 86.5
t-18 115v209h181v-214q0 -38 22 -58t71 -20h72q50 0 69 11t19 28zM473 -412h-286v138h286v-138z" />
    <glyph glyph-name="uniFEF2" unicode="&#x64a;" horiz-adv-x="682" arabic-form="final" 
d="M280 16l17 177h385q6 0 10 -2.5t7 -11.5t4 -28t1 -52q0 -35 -1 -55t-4 -30t-7 -12t-10 -2h-45q-4 -49 -24.5 -89.5t-55.5 -69.5t-84 -45t-110 -16h-72q-62 0 -110.5 19t-82.5 54.5t-52 86.5t-18 115v209h181v-214q0 -38 22 -58t71 -20h89q29 0 50 5.5t21 22.5
q0 16 -16 16h-166zM473 -412h-286v138h286v-138z" />
    <glyph glyph-name="uni0626" unicode="&#x626;" horiz-adv-x="671" arabic-form="isolated" 
d="M462 11q0 7 -5 12t-11 5h-193v203q0 45 14 82.5t39.5 64.5t62.5 42t82 15h159l11 -187h-170q-7 0 -11.5 -5t-4.5 -12v-16h33q49 0 82.5 -13t54 -35.5t29.5 -54t9 -68.5q0 -54 -20.5 -102t-57.5 -84t-88.5 -57t-113.5 -21h-72q-62 0 -110.5 19t-82.5 54.5t-52 86.5
t-18 115v209h181v-214q0 -38 22 -58t71 -20h72q50 0 69 11t19 28zM27 397l51 28q-20 16 -30 39.5t-10 48.5q0 20 7 40.5t21 37t34.5 27t47.5 10.5h88l-16 -110h-50q-11 0 -19 -5.5t-8 -16.5q0 -9 6 -15.5t14 -6.5q14 0 34.5 9t61.5 32l43 -101l-225 -116z" />
    <glyph glyph-name="uniFE8A" unicode="&#x626;" horiz-adv-x="682" arabic-form="final" 
d="M280 16l17 177h385q6 0 10 -2.5t7 -11.5t4 -28t1 -52q0 -35 -1 -55t-4 -30t-7 -12t-10 -2h-45q-4 -49 -24.5 -89.5t-55.5 -69.5t-84 -45t-110 -16h-72q-62 0 -110.5 19t-82.5 54.5t-52 86.5t-18 115v209h181v-214q0 -38 22 -58t71 -20h89q29 0 50 5.5t21 22.5
q0 16 -16 16h-166zM217 309l51 28q-20 16 -30 39.5t-10 48.5q0 20 7 40.5t21 37t34.5 27t47.5 10.5h88l-16 -110h-50q-11 0 -19 -5.5t-8 -16.5q0 -9 6 -15.5t14 -6.5q14 0 34.5 9t61.5 32l43 -101l-225 -116z" />
    <glyph glyph-name="uniFE8C" unicode="&#x626;" horiz-adv-x="291" arabic-form="medial" 
d="M38 193q7 0 12 4.5t5 11.5v149h182v-149q0 -16 16 -16h38q6 0 10.5 -2.5t7 -11.5t3.5 -28t1 -52q0 -35 -1 -55t-3.5 -30t-7 -12t-10.5 -2h-31q-34 0 -62.5 6t-49.5 27q-24 -21 -48.5 -27t-44.5 -6h-55q-6 0 -10.5 2t-7 11.5t-3.5 28.5t-1 52q0 35 1 55t3.5 29.5t7 12
t10.5 2.5h38zM5 457l51 28q-20 16 -30 39.5t-10 48.5q0 20 7 40.5t21 37t34.5 27t47.5 10.5h88l-16 -110h-50q-11 0 -19 -5.5t-8 -16.5q0 -9 6 -15.5t14 -6.5q14 0 34.5 9t61.5 32l43 -101l-225 -116z" />
    <glyph glyph-name="uniFE8B" unicode="&#x626;" horiz-adv-x="286" arabic-form="initial" 
d="M61 193q6 0 11 4.5t5 11.5v149h181v-165q0 -48 -13.5 -84t-37.5 -60t-57.5 -36.5t-72.5 -12.5h-77q-6 0 -10.5 2t-7 11.5t-3.5 28.5t-1 52q0 35 1 55t3.5 29.5t7 12t10.5 2.5h61zM5 457l51 28q-20 16 -30 39.5t-10 48.5q0 20 7 40.5t21 37t34.5 27t47.5 10.5h88l-16 -110
h-50q-11 0 -19 -5.5t-8 -16.5q0 -9 6 -15.5t14 -6.5q14 0 34.5 9t61.5 32l43 -101l-225 -116z" />
    <glyph glyph-name="uni0649" unicode="&#x649;" horiz-adv-x="671" arabic-form="isolated" 
d="M462 11q0 7 -5 12t-11 5h-193v203q0 45 14 82.5t39.5 64.5t62.5 42t82 15h159l11 -187h-170q-7 0 -11.5 -5t-4.5 -12v-16h33q49 0 82.5 -13t54 -35.5t29.5 -54t9 -68.5q0 -54 -20.5 -102t-57.5 -84t-88.5 -57t-113.5 -21h-72q-62 0 -110.5 19t-82.5 54.5t-52 86.5
t-18 115v209h181v-214q0 -38 22 -58t71 -20h72q50 0 69 11t19 28z" />
    <glyph glyph-name="uniFEF0" unicode="&#x649;" horiz-adv-x="682" arabic-form="final" 
d="M280 16l17 177h385q6 0 10 -2.5t7 -11.5t4 -28t1 -52q0 -35 -1 -55t-4 -30t-7 -12t-10 -2h-45q-4 -49 -24.5 -89.5t-55.5 -69.5t-84 -45t-110 -16h-72q-62 0 -110.5 19t-82.5 54.5t-52 86.5t-18 115v209h181v-214q0 -38 22 -58t71 -20h89q29 0 50 5.5t21 22.5
q0 16 -16 16h-166z" />
    <glyph glyph-name="uniFBE9" unicode="&#x649;" horiz-adv-x="291" arabic-form="medial" 
d="M38 193q7 0 12 4.5t5 11.5v149h182v-149q0 -16 16 -16h38q6 0 10.5 -2.5t7 -11.5t3.5 -28t1 -52q0 -35 -1 -55t-3.5 -30t-7 -12t-10.5 -2h-31q-34 0 -62.5 6t-49.5 27q-24 -21 -48.5 -27t-44.5 -6h-55q-6 0 -10.5 2t-7 11.5t-3.5 28.5t-1 52q0 35 1 55t3.5 29.5t7 12
t10.5 2.5h38z" />
    <glyph glyph-name="uniFBE8" unicode="&#x649;" horiz-adv-x="286" arabic-form="initial" 
d="M61 193q6 0 11 4.5t5 11.5v149h181v-165q0 -48 -13.5 -84t-37.5 -60t-57.5 -36.5t-72.5 -12.5h-77q-6 0 -10.5 2t-7 11.5t-3.5 28.5t-1 52q0 35 1 55t3.5 29.5t7 12t10.5 2.5h61z" />
    <glyph glyph-name="uni0621" unicode="&#x621;" horiz-adv-x="468" arabic-form="isolated" 
d="M28 132l62 32q-26 26 -36 56.5t-10 59.5q0 39 13 74.5t36 61.5t55.5 41.5t71.5 15.5q33 0 63.5 -8t68.5 -25l-39 -143q-33 8 -46 9.5t-25 1.5q-17 0 -27.5 -8t-10.5 -25q0 -13 7.5 -20t19.5 -7q10 0 21.5 3t27.5 9.5t38.5 17t55.5 24.5l66 -154l-335 -170z" />
    <glyph glyph-name="uniFDFC" unicode="&#xfdfc;" horiz-adv-x="1447" arabic-form="isolated" 
d="M1419 44q0 -56 -19 -106t-53 -87.5t-81.5 -59.5t-105.5 -22h-110l-17 192h105q54 0 76.5 22t22.5 55v320h182v-314zM969 193q6 0 11 4.5t5 11.5v149h181v-165q0 -48 -13.5 -84t-37.5 -60t-57.5 -36.5t-72.5 -12.5h-77q-6 0 -10.5 2t-7 11.5t-3.5 28.5t-1 52q0 35 1 55
t3.5 29.5t7 12t10.5 2.5h61zM956 -203h-286v138h286v-138zM907 193q6 0 10.5 -2.5t7 -11.5t3.5 -28t1 -52q0 -35 -1 -55t-3.5 -30t-7 -12t-10.5 -2h-49q-52 0 -87.5 15.5t-57.5 41.5t-32 61.5t-10 74.5v417h182v-401q0 -16 16 -16h38zM291 -220q-62 0 -110.5 19t-82.5 54.5
t-52 86.5t-18 115v209h181v-214q0 -38 22 -58t71 -20h33q54 0 77 22t23 56v560h181v-549q0 -58 -19 -109t-54.5 -89.5t-86.5 -60.5t-115 -22h-50z" />
    <glyph glyph-name="uniFC60" unicode="&#xfc60;" arabic-form="isolated" 
d="M121 474l49 -117l-280 -120l-50 116zM50 105h16q16 0 16 16v116h105v-94q0 -48 -13 -76t-32 -43t-41.5 -19.5t-41.5 -4.5h-21q-8 0 -17 3t-21 13q-13 -10 -22 -13t-17 -3h-22q-18 0 -40 4.5t-41 19.5t-32 43t-13 76v94h104v-116q0 -7 5 -11.5t12 -4.5h16v132h100v-132z
" />
    <glyph glyph-name="uniFC61" unicode="&#xfc61;" arabic-form="isolated" 
d="M-165 353l104 43q-16 25 -16 56q0 23 9.5 44t26 36.5t38.5 25t47 9.5q26 0 48 -9.5t38.5 -26.5t25.5 -40t9 -50q0 -85 -99 -127l-182 -77zM29 439q0 -13 15 -19q9 4 12 9t3 10q0 6 -3.5 11t-11.5 5q-7 0 -11 -5t-4 -11zM50 105h16q16 0 16 16v116h105v-94q0 -48 -13 -76
t-32 -43t-41.5 -19.5t-41.5 -4.5h-21q-8 0 -17 3t-21 13q-13 -10 -22 -13t-17 -3h-22q-18 0 -40 4.5t-41 19.5t-32 43t-13 76v94h104v-116q0 -7 5 -11.5t12 -4.5h16v132h100v-132z" />
    <glyph glyph-name="uniFC62" unicode="&#xfc62;" arabic-form="isolated" 
d="M50 336h16q16 0 16 16v116h105v-94q0 -48 -13 -76t-32 -43t-41.5 -19.5t-41.5 -4.5h-21q-8 0 -17 3t-21 13q-13 -10 -22 -13t-17 -3h-22q-18 0 -40 4.5t-41 19.5t-32 43t-13 76v94h104v-116q0 -7 5 -11.5t12 -4.5h16v132h100v-132zM121 237l49 -117l-280 -120l-50 116z
" />
    <glyph glyph-name="uniFC5E" unicode="&#xfc5e;" arabic-form="isolated" 
d="M-154 347v55q0 7 -5 12t-12 5h-33v98h83q20 0 32 -11.5t12 -31.5v-94l38 16q-16 25 -16 56q0 23 9.5 44t26 36.5t38.5 25t47 9.5q26 0 48 -9.5t38.5 -26.5t25.5 -40t9 -50q0 -85 -99 -127l-182 -77zM51 439q0 -13 15 -19q9 4 12 9t3 10q0 6 -3.5 11t-11.5 5q-7 0 -11 -5
t-4 -11zM50 105h16q16 0 16 16v116h105v-94q0 -48 -13 -76t-32 -43t-41.5 -19.5t-41.5 -4.5h-21q-8 0 -17 3t-21 13q-13 -10 -22 -13t-17 -3h-22q-18 0 -40 4.5t-41 19.5t-32 43t-13 76v94h104v-116q0 -7 5 -11.5t12 -4.5h16v132h100v-132z" />
    <glyph glyph-name="uniFC5F" unicode="&#xfc5f;" arabic-form="isolated" 
d="M55 479h16q16 0 16 16v116h105v-94q0 -48 -13 -76t-32 -43t-41.5 -19.5t-41.5 -4.5h-21q-8 0 -17 3t-21 13q-13 -10 -22 -13t-17 -3h-22q-18 0 -40 4.5t-41 19.5t-32 43t-13 76v94h104v-116q0 -7 5 -11.5t12 -4.5h16v132h100v-132zM149 237l49 -117l-280 -120l-50 116z
M89 380l49 -117l-280 -120l-50 116z" />
    <glyph glyph-name="uniFC63" unicode="&#xfc63;" arabic-form="isolated" 
d="M50 105h16q16 0 16 16v116h105v-94q0 -48 -13 -76t-32 -43t-41.5 -19.5t-41.5 -4.5h-21q-8 0 -17 3t-21 13q-13 -10 -22 -13t-17 -3h-22q-18 0 -40 4.5t-41 19.5t-32 43t-13 76v94h104v-116q0 -7 5 -11.5t12 -4.5h16v132h100v-132zM-55 500h110v-231h-110v231z" />
    <glyph glyph-name="re.bv.fina" unicode="&#x695;" horiz-adv-x="280" 
d="M226 207q0 -14 16 -14h38q6 0 10.5 -2.5t7 -11.5t3.5 -28t1 -52q0 -35 -1 -55t-3.5 -30t-7 -12t-10.5 -2h-16q-24 0 -42 3q-6 -49 -27 -91.5t-54 -74t-77.5 -50t-96.5 -18.5h-110l-17 192h105q54 0 76.5 22t22.5 55v320h182v-151zM97 -258l101 -44l-90 -198h-106l-90 198
l101 44l42 -121z" />
    <glyph glyph-name="uni06A4" unicode="&#x6a4;" horiz-adv-x="803" arabic-form="isolated" 
d="M215 0q-52 0 -87.5 15.5t-57.5 41.5t-32 61.5t-10 74.5v165h181v-149q0 -7 5 -11.5t12 -4.5h159q-6 17 -8.5 33t-2.5 32q0 33 12.5 67.5t37.5 62t63.5 45.5t89.5 18q43 0 80 -12t63 -38t41 -68t15 -102v-38q0 -42 -13.5 -77t-41.5 -61t-70.5 -40.5t-100.5 -14.5h-335z
M599 187q5 8 5.5 20t0.5 24q0 17 -6.5 30.5t-26.5 13.5q-13 0 -20.5 -7.5t-7.5 -19.5t9 -28t46 -33zM643 671h-143v137h143v-137zM715 506h-286v137h286v-137z" />
    <glyph glyph-name="uniFB6B" unicode="&#x6a4;" horiz-adv-x="831" arabic-form="final" 
d="M380 193q-4 12 -5 27.5t-1 32.5q0 37 13.5 72.5t39 63.5t63.5 45t87 17q52 0 89.5 -17t62 -44.5t36 -62t11.5 -69.5q0 -20 -2.5 -36.5t-6.5 -28.5h64q6 0 10 -2.5t7 -11.5t4 -28t1 -52q0 -35 -1 -55t-4 -30t-7 -12t-10 -2h-133q-33 0 -62.5 2.5t-58.5 19.5
q-14 -8 -31 -12.5t-33.5 -6.5t-31 -2.5t-24.5 -0.5h-242q-52 0 -87.5 15.5t-57.5 41.5t-32 61.5t-10 74.5v165h181v-149q0 -7 5 -11.5t12 -4.5h154zM575 193q13 8 21.5 20t8.5 29q0 12 -8 22.5t-22 10.5q-15 0 -23 -10.5t-8 -22.5q0 -17 9 -29t22 -20zM643 671h-143v137h143
v-137zM715 506h-286v137h286v-137z" />
    <glyph glyph-name="uniFB6D" unicode="&#x6a4;" horiz-adv-x="512" arabic-form="medial" 
d="M61 193q-4 12 -5 27.5t-1 32.5q0 37 13.5 72.5t39 63.5t63.5 45t87 17q52 0 89.5 -17t62 -44.5t36 -62t11.5 -69.5q0 -20 -2.5 -36.5t-6.5 -28.5h64q6 0 10 -2.5t6.5 -11.5t3.5 -28t1 -52q0 -35 -1 -55t-3.5 -30t-6.5 -12t-10 -2h-132q-34 0 -63.5 2.5t-58.5 19.5
q-14 -8 -31 -12.5t-33.5 -6.5t-31.5 -2.5t-25 -0.5h-137q-6 0 -10.5 2t-7 11.5t-3.5 28.5t-1 52q0 35 1 55t3.5 29.5t7 12t10.5 2.5h61zM256 193q13 8 21.5 20t8.5 29q0 12 -8 22.5t-22 10.5t-22 -10.5t-8 -22.5q0 -17 8.5 -29t21.5 -20zM324 671h-143v137h143v-137z
M396 506h-286v137h286v-137z" />
    <glyph glyph-name="uniFB6C" unicode="&#x6a4;" horiz-adv-x="484" arabic-form="initial" 
d="M66 193q-6 17 -8.5 33t-2.5 32q0 33 12.5 67.5t37.5 62t63.5 45.5t89.5 18q43 0 80 -12t63 -38t41 -68t15 -102v-38q0 -42 -13.5 -77t-41.5 -61t-70.5 -40.5t-100.5 -14.5h-231q-6 0 -10.5 2t-7 11.5t-3.5 28.5t-1 52q0 35 1 55t3.5 29.5t7 12t10.5 2.5h66zM280 187
q5 8 5.5 20t0.5 24q0 17 -6.5 30.5t-26.5 13.5q-12 0 -19.5 -7.5t-7.5 -19.5t8.5 -28t45.5 -33zM324 671h-143v137h143v-137zM396 506h-286v137h286v-137z" />
    <glyph glyph-name="lam.tv.init" unicode="&#x6b5;" horiz-adv-x="269" 
d="M38 193q7 0 12 4.5t5 11.5v292h182v-308q0 -50 -14 -86t-38 -60t-57.5 -35.5t-72.5 -11.5h-55q-6 0 -10.5 2t-7 11.5t-3.5 28.5t-1 52q0 35 1 55t3.5 29.5t7 12t10.5 2.5h38zM185 797l101 -44l-90 -198h-106l-90 198l101 44l42 -121z" />
    <glyph glyph-name="lam.tvmedi" unicode="&#x6b5;" horiz-adv-x="291" 
d="M38 193q7 0 12 4.5t5 11.5v292h182v-292q0 -16 16 -16h38q6 0 10.5 -2.5t7 -11.5t3.5 -28t1 -52q0 -35 -1 -55t-3.5 -30t-7 -12t-10.5 -2h-31q-34 0 -62.5 6t-49.5 27q-24 -21 -48.5 -27t-44.5 -6h-55q-6 0 -10.5 2t-7 11.5t-3.5 28.5t-1 52q0 35 1 55t3.5 29.5t7 12
t10.5 2.5h38zM185 797l101 -44l-90 -198h-106l-90 198l101 44l42 -121z" />
    <glyph glyph-name="lam.tv.fina" unicode="&#x6b5;" horiz-adv-x="671" 
d="M291 -220q-62 0 -110.5 19t-82.5 54.5t-52 86.5t-18 115v209h181v-214q0 -38 22 -58t71 -20h33q54 0 77 22t23 56v560h181v-403q2 -14 16 -14h39q6 0 10 -2.5t7 -11.5t4 -28t1 -52q0 -35 -1 -55t-4 -30t-7 -12t-10 -2q-18 0 -33 0.5t-28 1.5q-9 -47 -31 -87.5
t-56.5 -70.5t-80 -47t-101.5 -17h-50zM295 627l101 -44l-90 -198h-106l-90 198l101 44l42 -121z" />
    <glyph glyph-name="uni06C6" unicode="&#x6c6;" horiz-adv-x="473" arabic-form="isolated" 
d="M446 22q0 -66 -18.5 -116.5t-52.5 -84.5t-80.5 -51.5t-101.5 -17.5h-149l-11 193h171q33 0 46.5 13t13.5 42h-16q-62 0 -102 14t-62.5 39.5t-31 62.5t-8.5 82q0 43 13 82t38.5 68.5t62.5 47t84 17.5q41 0 78 -12t65 -38.5t44.5 -68t16.5 -101.5v-171zM215 210
q0 -16 6 -25t27 -9h27v28q0 38 -31 38q-29 0 -29 -32zM284 704l101 -44l-90 -198h-106l-90 198l101 44l42 -121z" />
    <glyph glyph-name="uniFBDA" unicode="&#x6c6;" horiz-adv-x="501" arabic-form="final" 
d="M501 193q6 0 10 -2.5t6.5 -11.5t3.5 -28t1 -52q0 -35 -1 -55t-3.5 -30t-6.5 -12t-10 -2h-57q-3 -61 -22.5 -107t-52.5 -77.5t-78 -47.5t-98 -16h-149l-11 193h171q33 0 46.5 13t13.5 42h-16q-62 0 -102 14t-62.5 39.5t-31 62.5t-8.5 82q0 43 13 82t38.5 68.5t62.5 47
t84 17.5q41 0 78 -12t65 -38.5t44.5 -68t16.5 -101.5h55zM215 210q0 -16 6 -25t27 -9h27v28q0 38 -31 38q-29 0 -29 -32zM284 704l101 -44l-90 -198h-106l-90 198l101 44l42 -121z" />
    <glyph glyph-name="vav.t2p.fina" unicode="&#x6ca;" horiz-adv-x="501" 
d="M501 193q6 0 10 -2.5t6.5 -11.5t3.5 -28t1 -52q0 -35 -1 -55t-3.5 -30t-6.5 -12t-10 -2h-57q-3 -61 -22.5 -107t-52.5 -77.5t-78 -47.5t-98 -16h-149l-11 193h171q33 0 46.5 13t13.5 42h-16q-62 0 -102 14t-62.5 39.5t-31 62.5t-8.5 82q0 43 13 82t38.5 68.5t62.5 47
t84 17.5q41 0 78 -12t65 -38.5t44.5 -68t16.5 -101.5h55zM215 210q0 -16 6 -25t27 -9h27v28q0 38 -31 38q-29 0 -29 -32zM391 468h-286v137h286v-137z" />
    <glyph glyph-name="he.thmz.goal.fina" unicode="&#x6c2;" horiz-adv-x="484" 
d="M429 209q0 -7 5 -11.5t12 -4.5h38q6 0 10.5 -2.5t7 -11.5t3.5 -28t1 -52q0 -35 -1 -55t-3.5 -30t-7 -12t-10.5 -2h-44q-37 0 -70.5 14.5t-50.5 56.5q-25 -20 -51.5 -26.5t-63.5 -6.5q-39 0 -71.5 11.5t-56 36t-36 62t-12.5 89.5q0 39 13.5 77.5t38 68.5t60 49t80.5 19h28
v61h181v-303zM198 242q0 -17 7.5 -22t20.5 -5q17 0 24.5 7.5t7.5 19.5v33h-27q-33 0 -33 -33zM104 605l51 28q-20 16 -30 39.5t-10 48.5q0 20 7 40.5t21 37t34.5 27t47.5 10.5h88l-16 -110h-50q-11 0 -19 -5.5t-8 -16.5q0 -9 6 -15.5t14 -6.5q14 0 34.5 9t61.5 32l43 -101
l-225 -116z" />
    <glyph glyph-name="ae.fina" unicode="&#x6d5;" horiz-adv-x="484" 
d="M429 209q0 -7 5 -11.5t12 -4.5h38q6 0 10.5 -2.5t7 -11.5t3.5 -28t1 -52q0 -35 -1 -55t-3.5 -30t-7 -12t-10.5 -2h-44q-37 0 -70.5 14.5t-50.5 56.5q-25 -20 -51.5 -26.5t-63.5 -6.5q-39 0 -71.5 11.5t-56 36t-36 62t-12.5 89.5q0 39 13.5 77.5t38 68.5t60 49t80.5 19h28
v61h181v-303zM198 242q0 -17 7.5 -22t20.5 -5q17 0 24.5 7.5t7.5 19.5v33h-27q-33 0 -33 -33z" />
    <glyph glyph-name="uniFBAB" unicode="&#x6be;" horiz-adv-x="627" arabic-form="final" 
d="M330 -215q-65 0 -112 35t-61 107l-58 -26l-77 154q26 11 59 25.5t73 36.5v98q0 35 8.5 73.5t31 71t60.5 54t98 21.5q45 0 80 -14.5t59 -40.5t36 -61.5t12 -76.5q0 -14 -2.5 -31t-8.5 -35q35 17 99 17q6 0 10 -2.5t7 -11.5t4 -28t1 -52q0 -35 -1 -55t-4 -30t-7 -12t-10 -2
q-8 0 -17.5 -1.5t-21.5 -9t-28 -24.5t-38 -48l-93 -132h-99zM374 226q0 32 -28 32q-12 0 -19.5 -9t-7.5 -28v-34h11q21 0 32.5 11t11.5 28zM394 28q-15 -9 -36.5 -16.5t-38.5 -11.5q0 -21 5 -32.5t22 -11.5z" />
    <glyph glyph-name="uniFBAD" unicode="&#x6be;" horiz-adv-x="528" arabic-form="medial" 
d="M55 193v22q0 35 8.5 73.5t31 71t60.5 54t98 21.5q45 0 80 -14.5t59 -40.5t36 -61.5t12 -76.5q0 -14 -2.5 -31t-8.5 -35q35 17 99 17q6 0 10 -2.5t7 -11.5t4 -28t1 -52q0 -35 -1 -55t-4 -30t-7 -12t-10 -2q-8 0 -17.5 -1.5t-21.5 -9t-27.5 -24.5t-37.5 -48l-94 -132h-99
q-37 0 -69 11.5t-56 35t-37.5 59.5t-13.5 84v25h-55q-6 0 -10.5 2t-7 11.5t-3.5 28.5t-1 52q0 35 1 55t3.5 29.5t7 12t10.5 2.5h55zM275 226q0 17 -7.5 24.5t-19.5 7.5q-28 0 -28 -37v-34h11q20 0 32 11t12 28zM220 5q0 -25 5.5 -37t22.5 -12l40 62q-16 -6 -32.5 -9.5
t-35.5 -3.5z" />
    <glyph glyph-name="uniFBAC" unicode="&#x6be;" horiz-adv-x="698" arabic-form="initial" 
d="M61 193q-6 16 -6 49q0 35 15 68.5t42 60t65.5 42.5t86.5 16q27 0 48 -7l101 100l200 -212q34 -36 46 -69.5t12 -64.5q0 -37 -13 -69t-38 -56t-60.5 -37.5t-80.5 -13.5h-121q-34 0 -62.5 1.5t-53.5 9.5q-33 -8 -70 -9.5t-62 -1.5h-110q-6 0 -10.5 2t-7 11.5t-3.5 28.5
t-1 52q0 35 1 55t3.5 29.5t7 12t10.5 2.5h61zM245 187q13 8 21.5 20.5t8.5 29.5q0 12 -8 22t-22 10t-22 -10t-8 -22q0 -17 8.5 -29.5t21.5 -20.5zM484 207q0 4 -2 7.5t-7 9.5t-15 15.5t-25 24.5v-6q0 -20 -3.5 -36.5t-7.5 -28.5h38q13 0 17.5 3.5t4.5 10.5z" />
    <glyph glyph-name="ye.tv.init" unicode="&#x6ce;" horiz-adv-x="286" 
d="M61 193q6 0 11 4.5t5 11.5v149h181v-165q0 -48 -13.5 -84t-37.5 -60t-57.5 -36.5t-72.5 -12.5h-77q-6 0 -10.5 2t-7 11.5t-3.5 28.5t-1 52q0 35 1 55t3.5 29.5t7 12t10.5 2.5h61zM286 -192h-286v138h286v-138zM196 655l101 -44l-90 -198h-106l-90 198l101 44l42 -121z
" />
    <glyph glyph-name="ye.tv.medi" unicode="&#x6ce;" horiz-adv-x="291" 
d="M38 193q7 0 12 4.5t5 11.5v149h182v-149q0 -16 16 -16h38q6 0 10.5 -2.5t7 -11.5t3.5 -28t1 -52q0 -35 -1 -55t-3.5 -30t-7 -12t-10.5 -2h-31q-34 0 -62.5 6t-49.5 27q-24 -21 -48.5 -27t-44.5 -6h-55q-6 0 -10.5 2t-7 11.5t-3.5 28.5t-1 52q0 35 1 55t3.5 29.5t7 12
t10.5 2.5h38zM286 -192h-286v138h286v-138zM190 655l101 -44l-90 -198h-106l-90 198l101 44l42 -121z" />
    <glyph glyph-name="ye.tv.fina" unicode="&#x6ce;" horiz-adv-x="682" 
d="M280 16l17 177h385q6 0 10 -2.5t7 -11.5t4 -28t1 -52q0 -35 -1 -55t-4 -30t-7 -12t-10 -2h-45q-4 -49 -24.5 -89.5t-55.5 -69.5t-84 -45t-110 -16h-72q-62 0 -110.5 19t-82.5 54.5t-52 86.5t-18 115v209h181v-214q0 -38 22 -58t71 -20h89q29 0 50 5.5t21 22.5
q0 16 -16 16h-166zM377 500l101 -44l-90 -198h-106l-90 198l101 44l42 -121z" />
    <glyph glyph-name=".notdef" horiz-adv-x="528" 
d="M473 0h-418v610h418v-610zM237 418v-225h54v225h-54z" />
    <glyph glyph-name=".null" horiz-adv-x="957" 
 />
    <glyph glyph-name=".null" horiz-adv-x="957" 
 />
    <glyph glyph-name="nonmarkingreturn" horiz-adv-x="957" 
 />
    <glyph glyph-name="space" unicode=" " horiz-adv-x="110" 
 />
    <glyph glyph-name="nonmarkingreturn.1" unicode="&#xa;" 
 />
    <glyph glyph-name="nonmarkingreturn.2" 
 />
    <glyph glyph-name="uni00A0" unicode="&#xa0;" horiz-adv-x="165" 
 />
    <glyph glyph-name="uni2000" unicode="&#x2000;" horiz-adv-x="550" 
 />
    <glyph glyph-name="uni2000" unicode="&#x2002;" horiz-adv-x="550" 
 />
    <glyph glyph-name="uni2001" unicode="&#x2001;" horiz-adv-x="1100" 
 />
    <glyph glyph-name="uni2001" unicode="&#x2003;" horiz-adv-x="1100" 
 />
    <glyph glyph-name="uni2004" unicode="&#x2004;" horiz-adv-x="330" 
 />
    <glyph glyph-name="uni2005" unicode="&#x2005;" horiz-adv-x="275" 
 />
    <glyph glyph-name="uni2006" unicode="&#x2006;" horiz-adv-x="165" 
 />
    <glyph glyph-name="uni2007" unicode="&#x2007;" horiz-adv-x="275" 
 />
    <glyph glyph-name="uni2008" unicode="&#x2008;" horiz-adv-x="165" 
 />
    <glyph glyph-name="uni2009" unicode="&#x2009;" horiz-adv-x="165" 
 />
    <glyph glyph-name="uni2009" unicode="&#x200a;" horiz-adv-x="165" 
 />
    <glyph glyph-name="uni200B" unicode="&#x200b;" 
 />
    <glyph glyph-name="uni200C" unicode="&#x200c;" 
d="M22 490v-600h-44v600h44z" />
    <glyph glyph-name="uni200D" unicode="&#x200d;" 
d="M22 -109h-44v448l-59 -60l-29 29l79 79l-79 77l31 31l79 -80l79 80l31 -31l-79 -77l79 -79l-29 -29l-59 60v-448z" />
    <glyph glyph-name="uni202F" unicode="&#x202f;" horiz-adv-x="110" 
 />
    <glyph glyph-name="uniFEFF" unicode="&#xfeff;" 
 />
    <glyph glyph-name="uni2060" unicode="&#x2060;" horiz-adv-x="880" 
 />
    <glyph glyph-name="uniFFFC" unicode="&#xfffc;" horiz-adv-x="869" 
d="M847 555h-132v39h132v-39zM616 555h-129v39h129v-39zM847 342h-40v130h40v-130zM704 253q0 -50 -21 -74t-60 -24h-26v44h26q20 0 29 11t9 40v189h43v-186zM385 555h-131v39h131v-39zM847 0h-132v40h132v-40zM563 239q0 -38 -19.5 -61t-74.5 -23h-78v284h83q50 0 65.5 -21
t15.5 -54q0 -18 -8 -34.5t-25 -24.5q23 -9 32 -27t9 -39zM154 555h-132v39h132v-39zM616 0h-129v40h129v-40zM341 297q0 -72 -19.5 -109.5t-77.5 -37.5q-29 0 -47 9.5t-28 28t-13.5 46t-3.5 63.5q0 35 3.5 62.5t13.5 46t28 28.5t47 10q31 0 50 -10t29.5 -28.5t14 -46
t3.5 -62.5zM63 342h-41v130h41v-130zM385 0h-131v40h131v-40zM154 0h-132v40h132v-40zM517 361q0 19 -8.5 29t-42.5 10h-40v-79h39q32 0 42 9.5t10 30.5zM524 239q0 22 -12 33t-47 11h-39v-92h43q37 0 46 12.5t9 35.5zM297 297q0 27 -1 47.5t-6.5 34t-16 20t-29.5 6.5
q-36 0 -43.5 -26.5t-7.5 -81.5q0 -53 7.5 -80.5t43.5 -27.5q19 0 29.5 7t16 20.5t6.5 34t1 46.5zM847 122h-40v131h40v-131zM63 122h-41v131h41v-131z" />
    <glyph glyph-name="uni2028" unicode="&#x2028;" 
 />
    <glyph glyph-name="uni2029" unicode="&#x2029;" 
 />
    <glyph glyph-name="uni202A" unicode="&#x202a;" 
d="M-32 516h-62v27h62v-27zM-6 543h46l-37 37l19 19l72 -71l-72 -70l-19 21l37 37h-46v27z" />
    <glyph glyph-name="uni202B" unicode="&#x202b;" 
d="M31.998 516h61.9961v27h-61.9961v-27zM6 543h-45.998l36.998 37l-18.999 19l-71.9951 -71l71.9951 -70l18.999 21l-36.998 37h45.998v27z" />
    <glyph glyph-name="uni202C" unicode="&#x202c;" 
d="M-51 509l-21 19l72 71l71 -71l-20 -19l-37 37v-95h-28v93z" />
    <glyph glyph-name="uni202D" unicode="&#x202d;" 
d="M-52 580l20 19l70 -71l-70 -70l-20 21l38 37h-102v27h102zM25 580l19 19l72 -71l-72 -70l-19 21l51 49z" />
    <glyph glyph-name="uni202E" unicode="&#x202e;" 
d="M51.9971 580l-19.999 19l-69.9961 -71l69.9961 -70l19.999 21l-37.998 37h101.994v27h-101.994zM-24.998 580l-18.999 19l-71.9961 -71l71.9961 -70l18.999 21l-50.9971 49z" />
    <glyph glyph-name="uni200F" unicode="&#x200f;" horiz-adv-x="385" 
d="M186 599l27 -28l-59 -57h154v-624h-40v580h-114l59 -59l-27 -28l-109 109z" />
    <glyph glyph-name="uni200E" unicode="&#x200e;" horiz-adv-x="385" 
d="M199.012 599l-26.999 -28l58.9971 -57h-153.991v-624h39.998v580h113.993l-58.9971 -59l26.999 -28l108.993 109z" />
    <glyph glyph-name="periodcentered" unicode="&#xb7;" horiz-adv-x="286" 
d="M242 297q0 -54 -27 -76.5t-72 -22.5q-46 0 -72.5 22.5t-26.5 76.5q0 53 26.5 73.5t72.5 20.5q45 0 72 -20.5t27 -73.5z" />
    <glyph glyph-name="kashidas.Narrow" horiz-adv-x="82" 
d="M82 193q6 0 10.5 -2.5t7.5 -11.5t4 -28t1 -52q0 -35 -1 -55t-4 -30t-7.5 -12t-10.5 -2h-82q-6 0 -10.5 2t-7 11.5t-3.5 28.5t-1 52q0 35 1 55t3.5 29.5t7 12t10.5 2.5h82z" />
    <glyph glyph-name="uni0640" unicode="&#x640;" horiz-adv-x="165" 
d="M165 193q6 0 10.5 -2.5t7 -11.5t3.5 -28t1 -52q0 -35 -1 -55t-3.5 -30t-7 -12t-10.5 -2h-165q-6 0 -10.5 2t-7 11.5t-3.5 28.5t-1 52q0 35 1 55t3.5 29.5t7 12t10.5 2.5h165z" />
    <glyph glyph-name="kashidas.Wide" horiz-adv-x="248" 
d="M248 193q6 0 10 -2.5t6.5 -11.5t3.5 -28t1 -52q0 -35 -1 -55t-3.5 -30t-6.5 -12t-10 -2h-248q-6 0 -10.5 2t-7 11.5t-3.5 28.5t-1 52q0 35 1 55t3.5 29.5t7 12t10.5 2.5h248z" />
    <glyph glyph-name="he.arab.isol" horiz-adv-x="676" 
d="M280 0q-29 -25 -65.5 -56.5t-82.5 -64.5l-110 137q21 13 44 28.5t44 32.5q-42 33 -59.5 74t-17.5 80t15 75t42.5 63t66 43.5t85.5 16.5q27 0 48 -7l101 100l200 -212q34 -36 46 -69.5t12 -64.5q0 -37 -13 -69t-38 -56t-60.5 -37.5t-80.5 -13.5h-177zM223 187
q13 8 21.5 20.5t8.5 29.5q0 12 -8 22t-22 10t-22 -10t-8 -22q0 -17 8.5 -29.5t21.5 -20.5zM462 207q0 4 -2 7.5t-7 9.5t-15 15.5t-25 24.5v-6q0 -20 -3.5 -36.5t-7.5 -28.5h38q13 0 17.5 3.5t4.5 10.5z" />
    <glyph glyph-name="uniFBB2" unicode="&#xfbb2;" 
d="M94 0h-182v137h182v-137z" />
    <glyph glyph-name="uniFBB3" unicode="&#xfbb3;" 
d="M94 -138h-182v138h182v-138z" />
    <glyph glyph-name="uniFBB4" unicode="&#xfbb4;" 
d="M143 0h-286v137h286v-137z" />
    <glyph glyph-name="uniFBB5" unicode="&#xfbb5;" 
d="M143 -138h-286v138h286v-138z" />
    <glyph glyph-name="uniFBB6" unicode="&#xfbb6;" 
d="M71 165h-143v137h143v-137zM143 0h-286v137h286v-137z" />
    <glyph glyph-name="uniFBB9" unicode="&#xfbb9;" 
d="M71 -303h-143v138h143v-138zM143 -138h-286v138h286v-138z" />
    <glyph glyph-name="uni06F0" unicode="&#x6f0;" horiz-adv-x="473" 
d="M237 429q39 0 76.5 -17t67 -45t47.5 -65t18 -76q0 -40 -18 -76.5t-47.5 -65t-67 -45.5t-76.5 -17q-40 0 -77.5 17t-67 45.5t-47 65t-17.5 76.5q0 39 17.5 76t47 65t67 45t77.5 17zM237 193q13 0 22.5 10t9.5 23t-9.5 22.5t-22.5 9.5q-14 0 -23.5 -9.5t-9.5 -22.5t9.5 -23
t23.5 -10z" />
    <glyph glyph-name="uni06F1" unicode="&#x6f1;" horiz-adv-x="269" 
d="M61 -55v242q0 47 -3 86.5t-9.5 76.5t-16 73.5t-21.5 77.5l176 60q16 -50 27 -92.5t17 -85.5t8.5 -89t2.5 -101v-248h-181z" />
    <glyph glyph-name="uni06F2" unicode="&#x6f2;" horiz-adv-x="462" 
d="M264 187h-12t-10 2v-244h-181v242q0 47 -3 86.5t-9.5 76.5t-16 73.5t-21.5 77.5l176 60l39 -165q4 -19 17 -19q15 0 15 19q0 5 -4.5 37.5t-16.5 94.5l181 33q13 -66 17.5 -112t4.5 -75q0 -39 -12 -73.5t-34.5 -59.5t-55.5 -39.5t-74 -14.5z" />
    <glyph glyph-name="uni06F3" unicode="&#x6f3;" horiz-adv-x="676" 
d="M418 561q11 -60 16 -107t6 -71q3 -4 7.5 -5t7.5 -1q8 0 13 5t5 14q0 5 -4 43.5t-12 88.5l181 33q12 -70 14 -114t2 -73q0 -39 -12 -73.5t-34.5 -59.5t-55 -39.5t-73.5 -14.5q-20 0 -49 9.5t-53 34.5q-23 -24 -50.5 -34t-62.5 -10h-12t-10 2v-244h-181v242q0 47 -3 86.5
t-9.5 76.5t-16 73.5t-21.5 77.5l176 60l39 -165q4 -19 17 -19q15 0 15 19q0 5 -4.5 37.5t-16.5 94.5l181 33v0z" />
    <glyph glyph-name="uni06F4" unicode="&#x6f4;" horiz-adv-x="605" 
d="M258 346q-3 17 -4 25.5t-1 19.5q0 38 13.5 70t37.5 55.5t56 36.5t69 13q25 0 56 -5t76 -22l-39 -159q-37 7 -53 9t-29 2q-33 0 -33 -25t28 -25q23 0 50 7t59 15l39 -159q-62 -21 -114.5 -30t-94.5 -9q-28 0 -64 3.5t-68 14.5v-238h-181v242q0 47 -3 86.5t-9.5 76.5
t-16 73.5t-21.5 77.5l176 60l44 -192q3 -13 8 -18t19 -5z" />
    <glyph glyph-name="uni06F5" unicode="&#x6f5;" horiz-adv-x="621" 
d="M424 154q0 15 -4.5 31.5t-17.5 37t-37 45.5t-63 56q-54 -50 -79 -94t-25 -82q0 -27 19 -27q11 0 15.5 7.5t4.5 19.5v61h148v-82q6 -6 17 -6q8 0 15 8t7 25zM28 127q0 31 7.5 63t25 67.5t46 75.5t69.5 85l-33 29l115 136q105 -80 171 -143.5t102.5 -115.5t49.5 -96t13 -85
q0 -52 -17 -90t-43 -63.5t-58 -38t-63 -12.5q-33 0 -59 7.5t-46 25.5q-20 -18 -46.5 -25.5t-52.5 -7.5q-87 0 -134 50t-47 138z" />
    <glyph glyph-name="uni06F6" unicode="&#x6f6;" horiz-adv-x="440" 
d="M429 248q-44 -39 -76 -74.5t-59 -72t-52 -77.5t-55 -90l-154 88q16 27 31 50t30 43.5t31 39.5t34 38q-37 8 -62 25t-40.5 40t-22 50t-6.5 55q0 41 13.5 78t38 64.5t59 44t76.5 16.5q35 0 70.5 -8t77.5 -25l-50 -148q-37 8 -53 9.5t-29 1.5q-15 0 -24 -7t-9 -19
q0 -24 28 -24q23 0 50 8t65 20z" />
    <glyph glyph-name="uni06F7" unicode="&#x6f7;" horiz-adv-x="550" 
d="M187 -55q-15 84 -31 149.5t-36.5 124t-47 118t-61.5 131.5l165 98q23 -43 39 -80.5t27 -74.5t19 -76.5t14 -86.5q6 47 13.5 86.5t19 76.5t27.5 74.5t39 80.5l165 -98q-35 -72 -61.5 -131.5t-47 -118t-36.5 -124t-31 -149.5h-176z" />
    <glyph glyph-name="uni06F8" unicode="&#x6f8;" horiz-adv-x="550" 
d="M363 555q15 -84 31 -149t36.5 -124t47 -118t61.5 -131l-165 -99q-23 43 -39 81t-27.5 75t-19 76.5t-13.5 86.5q-6 -47 -14 -86.5t-19 -76.5t-27 -75t-39 -81l-165 99q35 72 61.5 131t47 118t36.5 124t31 149h176z" />
    <glyph glyph-name="uni06F9" unicode="&#x6f9;" horiz-adv-x="457" 
d="M242 -55v218q-8 -2 -19 -3t-19 -1q-48 0 -82 14.5t-56.5 39.5t-33 58t-10.5 70q0 41 14 81.5t40.5 72.5t64 51.5t85.5 19.5q54 0 91.5 -22t61 -58.5t34.5 -84t11 -99.5v-357h-182zM253 342q0 17 -8 33t-25 16q-12 0 -19.5 -10.5t-7.5 -22.5q0 -13 7.5 -18t19.5 -5
q14 0 33 7z" />
    <glyph glyph-name="uni0660" unicode="&#x660;" horiz-adv-x="473" 
d="M237 429q39 0 76.5 -17t67 -45t47.5 -65t18 -76q0 -40 -18 -76.5t-47.5 -65t-67 -45.5t-76.5 -17q-40 0 -77.5 17t-67 45.5t-47 65t-17.5 76.5q0 39 17.5 76t47 65t67 45t77.5 17zM237 193q13 0 22.5 10t9.5 23t-9.5 22.5t-22.5 9.5q-14 0 -23.5 -9.5t-9.5 -22.5t9.5 -23
t23.5 -10z" />
    <glyph glyph-name="uni0661" unicode="&#x661;" horiz-adv-x="269" 
d="M61 -55v242q0 47 -3 86.5t-9.5 76.5t-16 73.5t-21.5 77.5l176 60q16 -50 27 -92.5t17 -85.5t8.5 -89t2.5 -101v-248h-181z" />
    <glyph glyph-name="uni0662" unicode="&#x662;" horiz-adv-x="462" 
d="M264 187h-12t-10 2v-244h-181v242q0 47 -3 86.5t-9.5 76.5t-16 73.5t-21.5 77.5l176 60l39 -165q4 -19 17 -19q15 0 15 19q0 5 -4.5 37.5t-16.5 94.5l181 33q13 -66 17.5 -112t4.5 -75q0 -39 -12 -73.5t-34.5 -59.5t-55.5 -39.5t-74 -14.5z" />
    <glyph glyph-name="uni0663" unicode="&#x663;" horiz-adv-x="676" 
d="M418 561q11 -60 16 -107t6 -71q3 -4 7.5 -5t7.5 -1q8 0 13 5t5 14q0 5 -4 43.5t-12 88.5l181 33q12 -70 14 -114t2 -73q0 -39 -12 -73.5t-34.5 -59.5t-55 -39.5t-73.5 -14.5q-20 0 -49 9.5t-53 34.5q-23 -24 -50.5 -34t-62.5 -10h-12t-10 2v-244h-181v242q0 47 -3 86.5
t-9.5 76.5t-16 73.5t-21.5 77.5l176 60l39 -165q4 -19 17 -19q15 0 15 19q0 5 -4.5 37.5t-16.5 94.5l181 33v0z" />
    <glyph glyph-name="uni0664" unicode="&#x664;" horiz-adv-x="605" 
d="M258 346q-3 17 -4 25.5t-1 19.5q0 38 13.5 70t37.5 55.5t56 36.5t69 13q25 0 56 -5t76 -22l-39 -159q-37 7 -53 9t-29 2q-33 0 -33 -25t28 -25q23 0 50 7t59 15l39 -159q-62 -21 -114.5 -30t-94.5 -9q-28 0 -64 3.5t-68 14.5v-238h-181v242q0 47 -3 86.5t-9.5 76.5
t-16 73.5t-21.5 77.5l176 60l44 -192q3 -13 8 -18t19 -5z" />
    <glyph glyph-name="uni0665" unicode="&#x665;" horiz-adv-x="621" 
d="M424 154q0 15 -4.5 31.5t-17.5 37t-37 45.5t-63 56q-54 -50 -79 -94t-25 -82q0 -27 19 -27q11 0 15.5 7.5t4.5 19.5v61h148v-82q6 -6 17 -6q8 0 15 8t7 25zM28 127q0 31 7.5 63t25 67.5t46 75.5t69.5 85l-33 29l115 136q105 -80 171 -143.5t102.5 -115.5t49.5 -96t13 -85
q0 -52 -17 -90t-43 -63.5t-58 -38t-63 -12.5q-33 0 -59 7.5t-46 25.5q-20 -18 -46.5 -25.5t-52.5 -7.5q-87 0 -134 50t-47 138z" />
    <glyph glyph-name="uni0666" unicode="&#x666;" horiz-adv-x="440" 
d="M429 248q-44 -39 -76 -74.5t-59 -72t-52 -77.5t-55 -90l-154 88q16 27 31 50t30 43.5t31 39.5t34 38q-37 8 -62 25t-40.5 40t-22 50t-6.5 55q0 41 13.5 78t38 64.5t59 44t76.5 16.5q35 0 70.5 -8t77.5 -25l-50 -148q-37 8 -53 9.5t-29 1.5q-15 0 -24 -7t-9 -19
q0 -24 28 -24q23 0 50 8t65 20z" />
    <glyph glyph-name="uni0667" unicode="&#x667;" horiz-adv-x="550" 
d="M187 -55q-15 84 -31 149.5t-36.5 124t-47 118t-61.5 131.5l165 98q23 -43 39 -80.5t27 -74.5t19 -76.5t14 -86.5q6 47 13.5 86.5t19 76.5t27.5 74.5t39 80.5l165 -98q-35 -72 -61.5 -131.5t-47 -118t-36.5 -124t-31 -149.5h-176z" />
    <glyph glyph-name="uni0668" unicode="&#x668;" horiz-adv-x="639" 
d="M463 555q15 -84 31 -149t36.5 -124t47 -118t61.5 -131l-165 -99q-23 43 -39 81t-27.5 75t-19 76.5t-13.5 86.5q-6 -47 -14 -86.5t-19 -76.5t-27 -75t-39 -81l-165 99q35 72 61.5 131t47 118t36.5 124t31 149h176z" />
    <glyph glyph-name="uni0669" unicode="&#x669;" horiz-adv-x="457" 
d="M242 -55v218q-8 -2 -19 -3t-19 -1q-48 0 -82 14.5t-56.5 39.5t-33 58t-10.5 70q0 41 14 81.5t40.5 72.5t64 51.5t85.5 19.5q54 0 91.5 -22t61 -58.5t34.5 -84t11 -99.5v-357h-182zM253 342q0 17 -8 33t-25 16q-12 0 -19.5 -10.5t-7.5 -22.5q0 -13 7.5 -18t19.5 -5
q14 0 33 7z" />
    <glyph glyph-name="_216" horiz-adv-x="528" 
d="M473 0h-418v610h418v-610zM302 280l-71 -87h71v87zM297 418h-71v-88z" />
    <glyph glyph-name="sefr.tnum" horiz-adv-x="676" 
d="M338 429q39 0 76.5 -17t67 -45t47.5 -65t18 -76q0 -40 -18 -76.5t-47.5 -65t-67 -45.5t-76.5 -17q-40 0 -77.5 17t-67 45.5t-47 65t-17.5 76.5q0 39 17.5 76t47 65t67 45t77.5 17zM338 193q13 0 22.5 10t9.5 23t-9.5 22.5t-22.5 9.5q-14 0 -23.5 -9.5t-9.5 -22.5t9.5 -23
t23.5 -10z" />
    <glyph glyph-name="yek.tnum" horiz-adv-x="676" 
d="M272 -55v242q0 47 -3 86.5t-9.5 76.5t-16 73.5t-21.5 77.5l176 60q16 -50 27 -92.5t17 -85.5t8.5 -89t2.5 -101v-248h-181z" />
    <glyph glyph-name="do.tnum" horiz-adv-x="676" 
d="M376 187h-12t-10 2v-244h-181v242q0 47 -3 86.5t-9.5 76.5t-16 73.5t-21.5 77.5l176 60l39 -165q4 -19 17 -19q15 0 15 19q0 5 -4.5 37.5t-16.5 94.5l181 33q13 -66 17.5 -112t4.5 -75q0 -39 -12 -73.5t-34.5 -59.5t-55.5 -39.5t-74 -14.5z" />
    <glyph glyph-name="se.tnum" horiz-adv-x="676" 
d="M423 561q11 -60 16 -107t6 -71q3 -4 7.5 -5t7.5 -1q8 0 13 5t5 14q0 5 -4 43.5t-12 88.5l181 33q12 -70 14 -114t2 -73q0 -39 -12 -73.5t-34.5 -59.5t-55 -39.5t-73.5 -14.5q-20 0 -49 9.5t-53 34.5q-23 -24 -50.5 -34t-62.5 -10h-12t-10 2v-244h-181v242q0 47 -3 86.5
t-9.5 76.5t-16 73.5t-21.5 77.5l176 60l39 -165q4 -19 17 -19q15 0 15 19q0 5 -4.5 37.5t-16.5 94.5l181 33v0z" />
    <glyph glyph-name="char.tnum" horiz-adv-x="676" 
d="M299 346q-3 17 -4 25.5t-1 19.5q0 38 13.5 70t37.5 55.5t56 36.5t69 13q25 0 56 -5t76 -22l-39 -159q-37 7 -53 9t-29 2q-33 0 -33 -25t28 -25q23 0 50 7t59 15l39 -159q-62 -21 -114.5 -30t-94.5 -9q-28 0 -64 3.5t-68 14.5v-238h-181v242q0 47 -3 86.5t-9.5 76.5
t-16 73.5t-21.5 77.5l176 60l44 -192q3 -13 8 -18t19 -5z" />
    <glyph glyph-name="panj.tnum" horiz-adv-x="676" 
d="M452 154q0 15 -4.5 31.5t-17.5 37t-37 45.5t-63 56q-54 -50 -79 -94t-25 -82q0 -27 19 -27q11 0 15.5 7.5t4.5 19.5v61h148v-82q6 -6 17 -6q8 0 15 8t7 25zM56 127q0 31 7.5 63t25 67.5t46 75.5t69.5 85l-33 29l115 136q105 -80 171 -143.5t102.5 -115.5t49.5 -96t13 -85
q0 -52 -17 -90t-43 -63.5t-58 -38t-63 -12.5q-33 0 -59 7.5t-46 25.5q-20 -18 -46.5 -25.5t-52.5 -7.5q-87 0 -134 50t-47 138z" />
    <glyph glyph-name="shish.tnum" horiz-adv-x="676" 
d="M539 248q-44 -39 -76 -74.5t-59 -72t-52 -77.5t-55 -90l-154 88q16 27 31 50t30 43.5t31 39.5t34 38q-37 8 -62 25t-40.5 40t-22 50t-6.5 55q0 41 13.5 78t38 64.5t59 44t76.5 16.5q35 0 70.5 -8t77.5 -25l-50 -148q-37 8 -53 9.5t-29 1.5q-15 0 -24 -7t-9 -19
q0 -24 28 -24q23 0 50 8t65 20z" />
    <glyph glyph-name="haft.tnum" horiz-adv-x="676" 
d="M250 -55q-15 84 -31 149.5t-36.5 124t-47 118t-61.5 131.5l165 98q23 -43 39 -80.5t27 -74.5t19 -76.5t14 -86.5q6 47 13.5 86.5t19 76.5t27.5 74.5t39 80.5l165 -98q-35 -72 -61.5 -131.5t-47 -118t-36.5 -124t-31 -149.5h-176z" />
    <glyph glyph-name="hasht.tnum" horiz-adv-x="676" 
d="M426 555q15 -84 31 -149t36.5 -124t47 -118t61.5 -131l-165 -99q-23 43 -39 81t-27.5 75t-19 76.5t-13.5 86.5q-6 -47 -14 -86.5t-19 -76.5t-27 -75t-39 -81l-165 99q35 72 61.5 131t47 118t36.5 124t31 149h176z" />
    <glyph glyph-name="noh.tnum" horiz-adv-x="676" 
d="M358 -55v218q-8 -2 -19 -3t-19 -1q-48 0 -82 14.5t-56.5 39.5t-33 58t-10.5 70q0 41 14 81.5t40.5 72.5t64 51.5t85.5 19.5q54 0 91.5 -22t61 -58.5t34.5 -84t11 -99.5v-357h-182zM369 342q0 17 -8 33t-25 16q-12 0 -19.5 -10.5t-7.5 -22.5q0 -13 7.5 -18t19.5 -5
q14 0 33 7z" />
    <glyph glyph-name="sefr.arab.tnum" horiz-adv-x="676" 
d="M338 429q39 0 76.5 -17t67 -45t47.5 -65t18 -76q0 -40 -18 -76.5t-47.5 -65t-67 -45.5t-76.5 -17q-40 0 -77.5 17t-67 45.5t-47 65t-17.5 76.5q0 39 17.5 76t47 65t67 45t77.5 17zM338 193q13 0 22.5 10t9.5 23t-9.5 22.5t-22.5 9.5q-14 0 -23.5 -9.5t-9.5 -22.5t9.5 -23
t23.5 -10z" />
    <glyph glyph-name="yek.arab.tnum" horiz-adv-x="676" 
d="M272 -55v242q0 47 -3 86.5t-9.5 76.5t-16 73.5t-21.5 77.5l176 60q16 -50 27 -92.5t17 -85.5t8.5 -89t2.5 -101v-248h-181z" />
    <glyph glyph-name="do.arab.tnum" horiz-adv-x="676" 
d="M376 187h-12t-10 2v-244h-181v242q0 47 -3 86.5t-9.5 76.5t-16 73.5t-21.5 77.5l176 60l39 -165q4 -19 17 -19q15 0 15 19q0 5 -4.5 37.5t-16.5 94.5l181 33q13 -66 17.5 -112t4.5 -75q0 -39 -12 -73.5t-34.5 -59.5t-55.5 -39.5t-74 -14.5z" />
    <glyph glyph-name="se.arab.tnum" horiz-adv-x="676" 
d="M423 561q11 -60 16 -107t6 -71q3 -4 7.5 -5t7.5 -1q8 0 13 5t5 14q0 5 -4 43.5t-12 88.5l181 33q12 -70 14 -114t2 -73q0 -39 -12 -73.5t-34.5 -59.5t-55 -39.5t-73.5 -14.5q-20 0 -49 9.5t-53 34.5q-23 -24 -50.5 -34t-62.5 -10h-12t-10 2v-244h-181v242q0 47 -3 86.5
t-9.5 76.5t-16 73.5t-21.5 77.5l176 60l39 -165q4 -19 17 -19q15 0 15 19q0 5 -4.5 37.5t-16.5 94.5l181 33v0z" />
    <glyph glyph-name="char.arab.tnum" horiz-adv-x="676" 
d="M385 346q-3 17 -4 25.5t-1 19.5q0 38 13.5 70t37.5 55.5t56 36.5t69 13q25 0 56 -5t76 -22l-39 -159q-37 7 -53 9t-29 2q-33 0 -33 -25t28 -25q23 0 50 7t59 15l39 -159q-62 -21 -114.5 -30t-94.5 -9q-28 0 -64 3.5t-68 14.5v-238h-181v242q0 47 -3 86.5t-9.5 76.5
t-16 73.5t-21.5 77.5l176 60l44 -192q3 -13 8 -18t19 -5z" />
    <glyph glyph-name="panj.arab.tnum" horiz-adv-x="676" 
d="M501 154q0 15 -4.5 31.5t-17.5 37t-37 45.5t-63 56q-54 -50 -79 -94t-25 -82q0 -27 19 -27q11 0 15.5 7.5t4.5 19.5v61h148v-82q6 -6 17 -6q8 0 15 8t7 25zM105 127q0 31 7.5 63t25 67.5t46 75.5t69.5 85l-33 29l115 136q105 -80 171 -143.5t102.5 -115.5t49.5 -96
t13 -85q0 -52 -17 -90t-43 -63.5t-58 -38t-63 -12.5q-33 0 -59 7.5t-46 25.5q-20 -18 -46.5 -25.5t-52.5 -7.5q-87 0 -134 50t-47 138z" />
    <glyph glyph-name="shish.arab.tnum" horiz-adv-x="676" 
d="M536 248q-44 -39 -76 -74.5t-59 -72t-52 -77.5t-55 -90l-154 88q16 27 31 50t30 43.5t31 39.5t34 38q-37 8 -62 25t-40.5 40t-22 50t-6.5 55q0 41 13.5 78t38 64.5t59 44t76.5 16.5q35 0 70.5 -8t77.5 -25l-50 -148q-37 8 -53 9.5t-29 1.5q-15 0 -24 -7t-9 -19
q0 -24 28 -24q23 0 50 8t65 20z" />
    <glyph glyph-name="haft.arab.tnum" horiz-adv-x="676" 
d="M250 -55q-15 84 -31 149.5t-36.5 124t-47 118t-61.5 131.5l165 98q23 -43 39 -80.5t27 -74.5t19 -76.5t14 -86.5q6 47 13.5 86.5t19 76.5t27.5 74.5t39 80.5l165 -98q-35 -72 -61.5 -131.5t-47 -118t-36.5 -124t-31 -149.5h-176z" />
    <glyph glyph-name="hasht.arab.tnum" horiz-adv-x="676" 
d="M426 555q15 -84 31 -149t36.5 -124t47 -118t61.5 -131l-165 -99q-23 43 -39 81t-27.5 75t-19 76.5t-13.5 86.5q-6 -47 -14 -86.5t-19 -76.5t-27 -75t-39 -81l-165 99q35 72 61.5 131t47 118t36.5 124t31 149h176z" />
    <glyph glyph-name="noh.arab.tnum" horiz-adv-x="676" 
d="M358 -55v218q-8 -2 -19 -3t-19 -1q-48 0 -82 14.5t-56.5 39.5t-33 58t-10.5 70q0 41 14 81.5t40.5 72.5t64 51.5t85.5 19.5q54 0 91.5 -22t61 -58.5t34.5 -84t11 -99.5v-357h-182zM369 342q0 17 -8 33t-25 16q-12 0 -19.5 -10.5t-7.5 -22.5q0 -13 7.5 -18t19.5 -5
q14 0 33 7z" />
    <glyph glyph-name="uni0654" unicode="&#x654;" 
d="M-127 99l51 28q-20 16 -30 39.5t-10 48.5q0 20 7 40.5t21 37t34.5 27t47.5 10.5h88l-16 -110h-50q-11 0 -19 -5.5t-8 -16.5q0 -9 6 -15.5t14 -6.5q14 0 34.5 9t61.5 32l43 -101l-225 -116z" />
    <glyph glyph-name="uni0655" unicode="&#x655;" 
d="M-127 -230l51 28q-20 16 -30 39.5t-10 48.5q0 20 7 40.5t21 37t34.5 27t47.5 10.5h88l-16 -110h-50q-11 0 -19 -5.5t-8 -16.5q0 -9 6 -15.5t14 -6.5q14 0 34.5 9t61.5 32l43 -101l-225 -116z" />
    <glyph glyph-name="uni0653" unicode="&#x653;" 
d="M-6 66q-10 0 -18 -1.5t-16 -7.5t-18 -19.5t-25 -37.5l-99 66q29 48 47 73.5t35 37.5t38 14t56 2h188l-12 -127h-176z" />
    <glyph glyph-name="uni0652" unicode="&#x652;" 
d="M-132 132q0 27 10.5 51t28.5 42t42 28.5t51 10.5t51 -10.5t42 -28.5t28.5 -42t10.5 -51t-10.5 -51t-28.5 -42t-42 -28.5t-51 -10.5t-51 10.5t-42 28.5t-28.5 42t-10.5 51zM-22 132q0 -9 6.5 -15.5t15.5 -6.5t15.5 6.5t6.5 15.5t-6.5 15.5t-15.5 6.5t-15.5 -6.5
t-6.5 -15.5z" />
    <glyph glyph-name="uni0651" unicode="&#x651;" 
d="M50 105h16q16 0 16 16v116h105v-94q0 -48 -13 -76t-32 -43t-41.5 -19.5t-41.5 -4.5h-21q-8 0 -17 3t-21 13q-13 -10 -22 -13t-17 -3h-22q-18 0 -40 4.5t-41 19.5t-32 43t-13 76v94h104v-116q0 -7 5 -11.5t12 -4.5h16v132h100v-132z" />
    <glyph glyph-name="uni064E" unicode="&#x64e;" 
d="M121 237l49 -117l-280 -120l-50 116z" />
    <glyph glyph-name="uni064F" unicode="&#x64f;" 
d="M-165 116l104 43q-16 25 -16 56q0 23 9.5 44t26 36.5t38.5 25t47 9.5q26 0 48 -9.5t38.5 -26.5t25.5 -40t9 -50q0 -85 -99 -127l-182 -77zM29 202q0 -13 15 -19q9 4 12 9t3 10q0 6 -3.5 11t-11.5 5q-7 0 -11 -5t-4 -11z" />
    <glyph glyph-name="uni0650" unicode="&#x650;" 
d="M121 1l49 -117l-280 -120l-50 116z" />
    <glyph glyph-name="uni064B" unicode="&#x64b;" 
d="M149 237l49 -117l-280 -120l-50 116zM89 380l49 -117l-280 -120l-50 116z" />
    <glyph glyph-name="uni064C" unicode="&#x64c;" 
d="M-154 110v55q0 7 -5 12t-12 5h-33v98h83q20 0 32 -11.5t12 -31.5v-94l38 16q-16 25 -16 56q0 23 9.5 44t26 36.5t38.5 25t47 9.5q26 0 48 -9.5t38.5 -26.5t25.5 -40t9 -50q0 -85 -99 -127l-182 -77zM51 202q0 -13 15 -19q9 4 12 9t3 10q0 6 -3.5 11t-11.5 5q-7 0 -11 -5
t-4 -11z" />
    <glyph glyph-name="uni064D" unicode="&#x64d;" 
d="M149 -142l49 -117l-280 -120l-50 116zM89 1l49 -117l-280 -120l-50 116z" />
    <glyph glyph-name="uni0670" unicode="&#x670;" 
d="M-55 231h110v-231h-110v231z" />
    <glyph glyph-name="uni0656" unicode="&#x656;" 
d="M-55 1h110v-231h-110v231z" />
    <glyph glyph-name="Tvasla" 
d="M-165 50v113l86 10v-74q33 64 66.5 98t76.5 34q19 0 36 -8t30 -22.5t21 -35t8 -45.5q0 -19 -6.5 -40t-21 -39t-38 -29.5t-58.5 -11.5h-149zM44 94q7 0 13 4t6 13q0 13 -13 13q-10 0 -16.5 -8t-14.5 -22h25z" />
    <glyph glyph-name="_251" 
d="M-11 77q-13 0 -20.5 -2.5t-15.5 -16.5l-36 -69l-115 61l38 82q13 28 26 46.5t29 29t38.5 14.5t55.5 4h209v-149h-209z" />
    <glyph glyph-name="uni064B_uni0651" 
d="M50 105h16q16 0 16 16v116h105v-94q0 -48 -13 -76t-32 -43t-41.5 -19.5t-41.5 -4.5h-21q-8 0 -17 3t-21 13q-13 -10 -22 -13t-17 -3h-22q-18 0 -40 4.5t-41 19.5t-32 43t-13 76v94h104v-116q0 -7 5 -11.5t12 -4.5h16v132h100v-132zM143 474l49 -117l-280 -120l-50 116z
M83 617l49 -117l-280 -120l-50 116z" />
    <glyph glyph-name="be.dls" horiz-adv-x="704" 
d="M215 0q-52 0 -87.5 15.5t-57.5 41.5t-32 61.5t-10 74.5v165h181v-149q0 -7 5 -11.5t12 -4.5h253q6 0 11 4.5t5 11.5v149h181v-165q0 -48 -13.5 -84t-38 -60t-57.5 -36.5t-72 -12.5h-280z" />
    <glyph glyph-name="be.dls.fina" horiz-adv-x="732" 
d="M215 0q-52 0 -87.5 15.5t-57.5 41.5t-32 61.5t-10 74.5v165h181v-149q0 -7 5 -11.5t12 -4.5h253q6 0 11 4.5t5 11.5v149h181v-149q0 -7 5 -11.5t12 -4.5h39q6 0 10 -2.5t7 -11.5t4 -28t1 -52q0 -35 -1 -55t-4 -30t-7 -12t-10 -2h-32q-35 0 -63 6t-49 27q-25 -21 -49 -27
t-44 -6h-280z" />
    <glyph glyph-name="fe.dls.medi" horiz-adv-x="512" 
d="M61 193q-4 12 -5 27.5t-1 32.5q0 37 13.5 72.5t39 63.5t63.5 45t87 17q52 0 89.5 -17t62 -44.5t36 -62t11.5 -69.5q0 -20 -2.5 -36.5t-6.5 -28.5h64q6 0 10 -2.5t6.5 -11.5t3.5 -28t1 -52q0 -35 -1 -55t-3.5 -30t-6.5 -12t-10 -2h-132q-34 0 -63.5 2.5t-58.5 19.5
q-14 -8 -31 -12.5t-33.5 -6.5t-31.5 -2.5t-25 -0.5h-137q-6 0 -10.5 2t-7 11.5t-3.5 28.5t-1 52q0 35 1 55t3.5 29.5t7 12t10.5 2.5h61zM256 193q13 8 21.5 20t8.5 29q0 12 -8 22.5t-22 10.5t-22 -10.5t-8 -22.5q0 -17 8.5 -29t21.5 -20z" />
    <glyph glyph-name="fe.dls.init" horiz-adv-x="484" 
d="M66 193q-6 17 -8.5 33t-2.5 32q0 33 12.5 67.5t37.5 62t63.5 45.5t89.5 18q43 0 80 -12t63 -38t41 -68t15 -102v-38q0 -42 -13.5 -77t-41.5 -61t-70.5 -40.5t-100.5 -14.5h-231q-6 0 -10.5 2t-7 11.5t-3.5 28.5t-1 52q0 35 1 55t3.5 29.5t7 12t10.5 2.5h66zM280 187
q5 8 5.5 20t0.5 24q0 17 -6.5 30.5t-26.5 13.5q-12 0 -19.5 -7.5t-7.5 -19.5t8.5 -28t45.5 -33z" />
    <glyph glyph-name="period" unicode="." horiz-adv-x="253" 
d="M226 99q0 -54 -27 -76.5t-72 -22.5q-46 0 -72.5 22.5t-26.5 76.5q0 53 26.5 73.5t72.5 20.5q45 0 72 -20.5t27 -73.5z" />
    <glyph glyph-name="uni060C" unicode="&#x60c;" horiz-adv-x="253" 
d="M127 0q-23 0 -41.5 5t-31 18t-19.5 35.5t-7 57.5q0 72 7.5 115.5t28.5 68t58 35.5t96 17v-104q-34 -6 -52.5 -11t-27 -10.5t-10 -13.5t-1.5 -20h5q41 0 67.5 -20.5t26.5 -73.5q0 -54 -27 -76.5t-72 -22.5z" />
    <glyph glyph-name="colon" unicode=":" horiz-adv-x="253" 
d="M226 347q0 -54 -27 -76.5t-72 -22.5q-46 0 -72.5 22.5t-26.5 76.5q0 53 26.5 73.5t72.5 20.5q45 0 72 -20.5t27 -73.5zM226 99q0 -54 -27 -76.5t-72 -22.5q-46 0 -72.5 22.5t-26.5 76.5q0 53 26.5 73.5t72.5 20.5q45 0 72 -20.5t27 -73.5z" />
    <glyph glyph-name="uni061B" unicode="&#x61b;" horiz-adv-x="253" 
d="M127 248q-23 0 -41.5 5t-31 18t-19.5 35.5t-7 57.5q0 72 7.5 115.5t28.5 68t58 35.5t96 17v-104q-34 -6 -52.5 -11t-27 -10.5t-10 -13.5t-1.5 -20h5q41 0 67.5 -20.5t26.5 -73.5q0 -54 -27 -76.5t-72 -22.5zM226 99q0 -54 -27 -76.5t-72 -22.5q-46 0 -72.5 22.5
t-26.5 76.5q0 53 26.5 73.5t72.5 20.5q45 0 72 -20.5t27 -73.5z" />
    <glyph glyph-name="uni061F" unicode="&#x61f;" horiz-adv-x="440" 
d="M248 396q0 25 -5 34.5t-19 9.5q-11 0 -15.5 -7t-4.5 -15q0 -11 7.5 -21.5t25.5 -27.5q19 -19 31 -34t18.5 -34t8.5 -46.5t2 -72.5h-160q0 28 -2 45.5t-6.5 29.5t-13 22t-21.5 23q-28 28 -47 60.5t-19 77.5q0 36 11.5 67t35.5 54t61.5 36t89.5 13q45 0 80 -11t58.5 -36
t36 -66t12.5 -101h-165zM313 61q0 -48 -25.5 -68.5t-68.5 -20.5q-44 0 -69 20.5t-25 68.5t25 66.5t69 18.5q43 0 68.5 -18.5t25.5 -66.5z" />
    <glyph glyph-name="exclam" unicode="!" horiz-adv-x="243" 
d="M52 182q-6 45 -10.5 83.5t-7 75t-3.5 74t-1 80.5v115h181v-115q0 -43 -1 -80.5t-3.5 -74t-7 -75t-10.5 -83.5h-137zM216 61q0 -48 -25.5 -68.5t-68.5 -20.5q-44 0 -69 20.5t-25 68.5t25 66.5t69 18.5q43 0 68.5 -18.5t25.5 -66.5z" />
    <glyph glyph-name="uni066D" unicode="&#x66d;" horiz-adv-x="516" 
d="M327 446v-122l121 39l40 -137l-112 -39l72 -99l-121 -88l-69 105l-69 -105l-121 88l72 99l-112 39l40 137l116 -39v122h143z" />
    <glyph glyph-name="uni066A" unicode="&#x66a;" horiz-adv-x="787" 
d="M605 251q29 0 56.5 -12.5t49.5 -33.5t35 -48.5t13 -56.5t-13 -56t-35 -48t-49.5 -33.5t-56.5 -12.5t-57 12.5t-49.5 33.5t-34.5 48t-13 56t13 56.5t34.5 48.5t49.5 33.5t57 12.5zM605 77q9 0 15.5 7t6.5 15q0 9 -6.5 15.5t-15.5 6.5t-15.5 -6.5t-6.5 -15.5q0 -8 6.5 -15
t15.5 -7zM512 616l148 -94l-385 -605l-148 94zM182 283q-29 0 -56.5 12.5t-49.5 33.5t-35 48t-13 56t13 56t35 48t49.5 33.5t56.5 12.5t56.5 -12.5t49 -33.5t34.5 -48t13 -56t-13 -56t-34.5 -48t-49 -33.5t-56.5 -12.5zM182 457q-10 0 -16.5 -7t-6.5 -15q0 -10 6.5 -16
t16.5 -6q9 0 15.5 6t6.5 16q0 8 -6.5 15t-15.5 7z" />
    <glyph glyph-name="uni0609" unicode="&#x609;" horiz-adv-x="1116" 
d="M935 251q29 0 56.5 -12.5t49.5 -33.5t35 -48.5t13 -56.5t-13 -56t-35 -48t-49.5 -33.5t-56.5 -12.5t-57 12.5t-49.5 33.5t-34.5 48t-13 56t13 56.5t34.5 48.5t49.5 33.5t57 12.5zM935 77q9 0 15.5 7t6.5 15q0 9 -6.5 15.5t-15.5 6.5t-15.5 -6.5t-6.5 -15.5q0 -8 6.5 -15
t15.5 -7zM605 251q29 0 56.5 -12.5t49.5 -33.5t35 -48.5t13 -56.5t-13 -56t-35 -48t-49.5 -33.5t-56.5 -12.5t-57 12.5t-49.5 33.5t-34.5 48t-13 56t13 56.5t34.5 48.5t49.5 33.5t57 12.5zM605 77q9 0 15.5 7t6.5 15q0 9 -6.5 15.5t-15.5 6.5t-15.5 -6.5t-6.5 -15.5
q0 -8 6.5 -15t15.5 -7zM512 616l148 -94l-385 -605l-148 94zM182 283q-29 0 -56.5 12.5t-49.5 33.5t-35 48t-13 56t13 56t35 48t49.5 33.5t56.5 12.5t56.5 -12.5t49 -33.5t34.5 -48t13 -56t-13 -56t-34.5 -48t-49 -33.5t-56.5 -12.5zM182 457q-10 0 -16.5 -7t-6.5 -15
q0 -10 6.5 -16t16.5 -6q9 0 15.5 6t6.5 16q0 8 -6.5 15t-15.5 7z" />
    <glyph glyph-name="uni060A" unicode="&#x60a;" horiz-adv-x="1447" 
d="M1265 251q29 0 56.5 -12.5t49.5 -33.5t35 -48.5t13 -56.5t-13 -56t-35 -48t-49.5 -33.5t-56.5 -12.5t-57 12.5t-49.5 33.5t-34.5 48t-13 56t13 56.5t34.5 48.5t49.5 33.5t57 12.5zM1265 77q9 0 15.5 7t6.5 15q0 9 -6.5 15.5t-15.5 6.5t-15.5 -6.5t-6.5 -15.5
q0 -8 6.5 -15t15.5 -7zM935 251q29 0 56.5 -12.5t49.5 -33.5t35 -48.5t13 -56.5t-13 -56t-35 -48t-49.5 -33.5t-56.5 -12.5t-57 12.5t-49.5 33.5t-34.5 48t-13 56t13 56.5t34.5 48.5t49.5 33.5t57 12.5zM935 77q9 0 15.5 7t6.5 15q0 9 -6.5 15.5t-15.5 6.5t-15.5 -6.5
t-6.5 -15.5q0 -8 6.5 -15t15.5 -7zM605 251q29 0 56.5 -12.5t49.5 -33.5t35 -48.5t13 -56.5t-13 -56t-35 -48t-49.5 -33.5t-56.5 -12.5t-57 12.5t-49.5 33.5t-34.5 48t-13 56t13 56.5t34.5 48.5t49.5 33.5t57 12.5zM605 77q9 0 15.5 7t6.5 15q0 9 -6.5 15.5t-15.5 6.5
t-15.5 -6.5t-6.5 -15.5q0 -8 6.5 -15t15.5 -7zM512 616l148 -94l-385 -605l-148 94zM182 283q-29 0 -56.5 12.5t-49.5 33.5t-35 48t-13 56t13 56t35 48t49.5 33.5t56.5 12.5t56.5 -12.5t49 -33.5t34.5 -48t13 -56t-13 -56t-34.5 -48t-49 -33.5t-56.5 -12.5zM182 457
q-10 0 -16.5 -7t-6.5 -15q0 -10 6.5 -16t16.5 -6q9 0 15.5 6t6.5 16q0 8 -6.5 15t-15.5 7z" />
    <glyph glyph-name="uni060D" unicode="&#x60d;" horiz-adv-x="424" 
d="M248 308l148 -93l-220 -347l-148 93z" />
    <glyph glyph-name="uni066C" unicode="&#x66c;" horiz-adv-x="253" 
d="M126.008 193q22.998 0 41.4971 -5q18.499 -4.99902 30.998 -17.999q12.5 -12.999 19.499 -35.4971q7 -22.499 7 -57.4971q0 -71.9951 -7.5 -115.493q-7.49902 -43.4971 -28.498 -67.9951q-20.999 -24.499 -57.9961 -35.498q-36.998 -10.999 -95.9941 -16.999v103.994
q33.998 5.99902 52.4961 10.999q18.499 4.99902 26.999 10.499q8.49902 5.5 9.99902 13.499q1.5 8 1.5 19.999h-5q-40.9971 0 -67.4961 20.499q-26.498 20.499 -26.498 73.4951q0 53.9971 26.998 76.4951q26.999 22.499 71.9961 22.499z" />
    <glyph glyph-name="hezar.sep.up" horiz-adv-x="253" 
d="M126.008 610q22.998 0 41.4971 -5q18.499 -4.99902 30.998 -17.999q12.5 -12.999 19.499 -35.4971q7 -22.499 7 -57.4971q0 -71.9951 -7.5 -115.493q-7.49902 -43.4971 -28.498 -67.9951q-20.999 -24.499 -57.9961 -35.498q-36.998 -10.999 -95.9941 -16.999v103.994
q33.998 5.99902 52.4961 10.999q18.499 4.99902 26.999 10.499q8.49902 5.5 9.99902 13.499q1.5 8 1.5 19.999h-5q-40.9971 0 -67.4961 20.499q-26.498 20.499 -26.498 73.4951q0 53.9971 26.998 76.4951q26.999 22.499 71.9961 22.499z" />
    <glyph glyph-name="uni066B" unicode="&#x66b;" horiz-adv-x="424" 
d="M248 308l148 -93l-220 -347l-148 93z" />
    <glyph glyph-name="quotesingle" unicode="'" horiz-adv-x="220" 
d="M28 610h165v-264h-165v264z" />
    <glyph glyph-name="quotedbl" unicode="&#x22;" horiz-adv-x="440" 
d="M28 610h165v-264h-165v264zM248 610h165v-264h-165v264z" />
    <glyph glyph-name="uniFD3E" unicode="&#xfd3e;" horiz-adv-x="330" 
d="M209 209q0 -50 4 -86.5t14 -68.5t28 -63t47 -68l-120 -105q-35 35 -63.5 73.5t-48.5 85t-31 103.5t-11 129t11 129t31 103.5t48.5 84.5t63.5 73l120 -104q-29 -37 -47 -68t-28 -63t-14 -69t-4 -86z" />
    <glyph glyph-name="uniFD3F" unicode="&#xfd3f;" horiz-adv-x="330" 
d="M121.013 209.013q0 49.9971 -4 86.4951q-3.99902 36.4971 -13.999 68.4951q-9.99902 31.998 -27.998 62.9961q-17.999 30.999 -46.9971 67.9961l119.992 104.994q34.998 -34.998 63.4961 -73.4961q28.499 -38.4971 48.4971 -84.9941q19.999 -46.498 30.998 -103.494
q11 -56.9961 11 -128.992q0 -71.9951 -11 -128.992q-10.999 -56.9961 -30.998 -103.493q-19.998 -46.498 -48.4971 -84.4951q-28.498 -37.998 -63.4961 -72.9961l-119.992 103.994q28.998 36.998 46.9971 67.9961t27.998 62.9961q10 31.998 13.999 68.9951
q4 36.998 4 85.9951z" />
    <glyph glyph-name="parenleft" unicode="(" horiz-adv-x="330" 
d="M209 209q0 -50 4 -86.5t14 -68.5t28 -63t47 -68l-120 -105q-35 35 -63.5 73.5t-48.5 85t-31 103.5t-11 129t11 129t31 103.5t48.5 84.5t63.5 73l120 -104q-29 -37 -47 -68t-28 -63t-14 -69t-4 -86z" />
    <glyph glyph-name="parenright" unicode=")" horiz-adv-x="330" 
d="M121.013 209.013q0 49.9971 -4 86.4951q-3.99902 36.4971 -13.999 68.4951q-9.99902 31.998 -27.998 62.9961q-17.999 30.999 -46.9971 67.9961l119.992 104.994q34.998 -34.998 63.4961 -73.4961q28.499 -38.4971 48.4971 -84.9941q19.999 -46.498 30.998 -103.494
q11 -56.9961 11 -128.992q0 -71.9951 -11 -128.992q-10.999 -56.9961 -30.998 -103.493q-19.998 -46.498 -48.4971 -84.4951q-28.498 -37.998 -63.4961 -72.9961l-119.992 103.994q28.998 36.998 46.9971 67.9961t27.998 62.9961q10 31.998 13.999 68.9951
q4 36.998 4 85.9951z" />
    <glyph glyph-name="guillemotleft" unicode="&#xab;" horiz-adv-x="517" 
d="M28 209q0 35 4 70t15.5 71.5t33 74t56.5 76.5l121 -88q-20 -31 -31 -56t-16 -48.5t-6 -47t-1 -52.5t1 -53t6 -47t16 -48t31 -56l-121 -88q-35 39 -56.5 76.5t-33 74t-15.5 71.5t-4 70zM259 209q0 35 4 70t15.5 71.5t33 74t56.5 76.5l121 -88q-20 -31 -31 -56t-16 -48.5
t-6 -47t-1 -52.5t1 -53t6 -47t16 -48t31 -56l-121 -88q-35 39 -56.5 76.5t-33 74t-15.5 71.5t-4 70z" />
    <glyph glyph-name="guillemotright" unicode="&#xbb;" horiz-adv-x="517" 
d="M489.002 209q0 35 -4 70t-15.499 71.5t-32.998 74t-56.4961 76.5l-120.993 -88q19.999 -31 30.998 -56q11 -25 15.999 -48.5q5 -23.5 6 -47t1 -52.5t-1 -53t-6 -47q-4.99902 -23 -15.999 -48q-10.999 -25 -30.998 -56l120.993 -88q34.9971 39 56.4961 76.5t32.998 74
t15.499 71.5t4 70zM258.002 209q0 35 -4 70t-15.499 71.5t-32.998 74t-56.4961 76.5l-120.993 -88q19.999 -31 30.998 -56q11 -25 15.999 -48.5q5 -23.5 6 -47t1 -52.5t-1 -53t-6 -47q-4.99902 -23 -15.999 -48q-10.999 -25 -30.998 -56l120.993 -88
q34.9971 39 56.4961 76.5t32.998 74t15.499 71.5t4 70z" />
    <glyph glyph-name="guilsinglleft" unicode="&#x2039;" horiz-adv-x="286" 
d="M28 209q0 35 4 70t15.5 71.5t33 74t56.5 76.5l121 -88q-20 -31 -31 -56t-16 -48.5t-6 -47t-1 -52.5t1 -53t6 -47t16 -48t31 -56l-121 -88q-35 39 -56.5 76.5t-33 74t-15.5 71.5t-4 70z" />
    <glyph glyph-name="guilsinglright" unicode="&#x203a;" horiz-adv-x="286" 
d="M258.002 209q0 35 -4 70t-15.499 71.5t-32.998 74t-56.4961 76.5l-120.993 -88q19.999 -31 30.998 -56q11 -25 15.999 -48.5q5 -23.5 6 -47t1 -52.5t-1 -53t-6 -47q-4.99902 -23 -15.999 -48q-10.999 -25 -30.998 -56l120.993 -88q34.9971 39 56.4961 76.5t32.998 74
t15.499 71.5t4 70z" />
    <glyph glyph-name="bracketleft" unicode="[" horiz-adv-x="346" 
d="M319 594v-187h-115v-396h115v-187h-291v770h291z" />
    <glyph glyph-name="bracketright" unicode="]" horiz-adv-x="346" 
d="M27.0195 594v-187h114.993v-396h-114.993v-187h290.982v770h-290.982z" />
    <glyph glyph-name="slash" unicode="/" horiz-adv-x="588" 
d="M413 616l148 -94l-385 -605l-148 94z" />
    <glyph glyph-name="backslash" unicode="\" horiz-adv-x="588" 
d="M175.025 616l-147.991 -94l384.977 -605l147.991 94z" />
    <glyph glyph-name="ellipsis" unicode="&#x2026;" horiz-adv-x="759" 
d="M479 99q0 -54 -27 -76.5t-72 -22.5q-46 0 -72.5 22.5t-26.5 76.5q0 53 26.5 73.5t72.5 20.5q45 0 72 -20.5t27 -73.5zM732 99q0 -54 -27 -76.5t-72 -22.5q-46 0 -72.5 22.5t-26.5 76.5q0 53 26.5 73.5t72.5 20.5q45 0 72 -20.5t27 -73.5zM226 99q0 -54 -27 -76.5
t-72 -22.5q-46 0 -72.5 22.5t-26.5 76.5q0 53 26.5 73.5t72.5 20.5q45 0 72 -20.5t27 -73.5z" />
    <glyph glyph-name="quoteleft" unicode="&#x2018;" horiz-adv-x="253" 
d="M127 264q-23 0 -41.5 5t-31 18t-19.5 35.5t-7 57.5q0 72 7.5 115.5t28.5 68t58 35.5t96 17v-104q-34 -6 -52.5 -11t-27 -10.5t-10 -13.5t-1.5 -20h5q41 0 67.5 -20.5t26.5 -73.5q0 -54 -27 -76.5t-72 -22.5z" />
    <glyph glyph-name="quoteright" unicode="&#x2019;" horiz-adv-x="253" 
d="M126.008 610q22.998 0 41.4971 -5q18.499 -4.99902 30.998 -17.999q12.5 -12.999 19.499 -35.4971q7 -22.499 7 -57.4971q0 -71.9951 -7.5 -115.493q-7.49902 -43.4971 -28.498 -67.9951q-20.999 -24.499 -57.9961 -35.498q-36.998 -10.999 -95.9941 -16.999v103.994
q33.998 5.99902 52.4961 10.999q18.499 4.99902 26.999 10.499q8.49902 5.5 9.99902 13.499q1.5 8 1.5 19.999h-5q-40.9971 0 -67.4961 20.499q-26.498 20.499 -26.498 73.4951q0 53.9971 26.998 76.4951q26.999 22.499 71.9961 22.499z" />
    <glyph glyph-name="quotedblleft" unicode="&#x201c;" horiz-adv-x="462" 
d="M127 264q-23 0 -41.5 5t-31 18t-19.5 35.5t-7 57.5q0 72 7.5 115.5t28.5 68t58 35.5t96 17v-104q-34 -6 -52.5 -11t-27 -10.5t-10 -13.5t-1.5 -20h5q41 0 67.5 -20.5t26.5 -73.5q0 -54 -27 -76.5t-72 -22.5zM336 264q-23 0 -41.5 5t-31 18t-19.5 35.5t-7 57.5
q0 72 7.5 115.5t28.5 68t58 35.5t96 17v-104q-34 -6 -52.5 -11t-27 -10.5t-10 -13.5t-1.5 -20h5q41 0 67.5 -20.5t26.5 -73.5q0 -54 -27 -76.5t-72 -22.5z" />
    <glyph glyph-name="quotedblright" unicode="&#x201d;" horiz-adv-x="462" 
d="M126.008 610q22.998 0 41.4971 -5q18.499 -4.99902 30.998 -17.999q12.5 -12.999 19.499 -35.4971q7 -22.499 7 -57.4971q0 -71.9951 -7.5 -115.493q-7.49902 -43.4971 -28.498 -67.9951q-20.999 -24.499 -57.9961 -35.498q-36.998 -10.999 -95.9941 -16.999v103.994
q33.998 5.99902 52.4961 10.999q18.499 4.99902 26.999 10.499q8.49902 5.5 9.99902 13.499q1.5 8 1.5 19.999h-5q-40.9971 0 -67.4961 20.499q-26.498 20.499 -26.498 73.4951q0 53.9971 26.998 76.4951q26.999 22.499 71.9961 22.499zM335.008 610q22.998 0 41.4971 -5
q18.499 -4.99902 30.998 -17.999q12.5 -12.999 19.499 -35.4971q7 -22.499 7 -57.4971q0 -71.9951 -7.5 -115.493q-7.49902 -43.4971 -28.498 -67.9951q-20.999 -24.499 -57.9961 -35.498q-36.998 -10.999 -95.9941 -16.999v103.994q33.998 5.99902 52.4961 10.999
q18.499 4.99902 26.999 10.499q8.49902 5.5 9.99902 13.499q1.5 8 1.5 19.999h-5q-40.9971 0 -67.4961 20.499q-26.498 20.499 -26.498 73.4951q0 53.9971 26.998 76.4951q26.999 22.499 71.9961 22.499z" />
    <glyph glyph-name="numbersign" unicode="#" horiz-adv-x="669" 
d="M161 328h-116v154h139l23 134l154 -18l-20 -116h40l24 134l154 -17l-21 -117h103v-154h-128l-9 -45h121v-154h-144l-23 -135l-154 17l19 118h-40l-23 -135l-154 17l21 118h-99v154h124zM354 277l11 56h-54l-12 -56h55z" />
    <glyph glyph-name="asteris" horiz-adv-x="516" 
d="M327 611v-122l121 39l40 -137l-112 -39l72 -99l-121 -88l-69 105l-69 -105l-121 88l72 99l-112 39l40 137l116 -39v122h143z" />
    <glyph glyph-name="plus" unicode="+" horiz-adv-x="501" 
d="M163 132h-135v181h135v133h175v-133h135v-181h-135v-132h-175v132z" />
    <glyph glyph-name="hyphen" unicode="-" horiz-adv-x="501" 
d="M473 313v-181h-445v181h445z" />
    <glyph glyph-name="plusminus" unicode="&#xb1;" horiz-adv-x="501" 
d="M163 182v115h-135v182h135v131h175v-131h135v-182h-135v-115h135v-182h-445v182h135z" />
    <glyph glyph-name="multiply" unicode="&#xd7;" horiz-adv-x="512" 
d="M129 228l-101 102l126 127l101 -103l103 103l126 -127l-102 -102l102 -101l-126 -127l-103 101l-101 -101l-126 127z" />
    <glyph glyph-name="divide" unicode="&#xf7;" horiz-adv-x="501" 
d="M165 143h165v-143h-165v143zM165 522h165v-142h-165v142zM473 351v-181h-445v181h445z" />
    <glyph glyph-name="equal" unicode="=" horiz-adv-x="501" 
d="M473 193v-181h-445v181h445zM473 429v-181h-445v181h445z" />
    <glyph glyph-name="notequal" unicode="&#x2260;" horiz-adv-x="501" 
d="M232 429l43 115l149 -54l-16 -61h65v-181h-131l-20 -55h151v-182h-217l-41 -116l-149 55l14 61h-52v182h118l20 55h-138v181h204z" />
    <glyph glyph-name="approxequal" unicode="&#x2248;" horiz-adv-x="501" 
d="M28 200q29 12 58.5 21.5t53.5 9.5q37 0 61.5 -11.5t46.5 -25t47.5 -24.5t65.5 -11q26 0 52.5 8t52.5 17l7 -177q-26 -11 -55 -20t-57 -9q-40 0 -65.5 11t-47.5 24.5t-46.5 25t-61.5 11.5q-24 0 -51 -8.5t-55 -19.5zM28 437q29 11 58.5 21t53.5 10q37 0 61.5 -11.5
t46.5 -25t47.5 -24.5t65.5 -11q26 0 52.5 7.5t52.5 16.5l7 -177q-26 -10 -55 -19t-57 -9q-40 0 -65.5 11t-47.5 24.5t-46.5 24.5t-61.5 11q-24 0 -51 -8.5t-55 -19.5z" />
    <glyph glyph-name="logicalnot" unicode="&#xac;" horiz-adv-x="501" 
d="M297 220h-269v182h445v-364h-176v182z" />
    <glyph glyph-name="less" unicode="&#x3c;" horiz-adv-x="462" 
d="M174 220l261 -77l-50 -165l-357 132v220l357 132l50 -165z" />
    <glyph glyph-name="greater" unicode="&#x3e;" horiz-adv-x="462" 
d="M288.011 220l-260.984 -77l49.9971 -165l356.979 132v220l-356.979 132l-49.9971 -165z" />
    <glyph glyph-name="lessequal" unicode="&#x2264;" horiz-adv-x="501" 
d="M190 379l261 -77l-50 -165l-357 132v220l357 132l50 -165zM473 138v-181h-445v181h445z" />
    <glyph glyph-name="greaterequal" unicode="&#x2265;" horiz-adv-x="501" 
d="M310.011 379l-260.984 -77l49.9971 -165l356.979 132v220l-356.979 132l-49.9971 -165zM28.0293 138v-181h444.973v181h-444.973z" />
    <glyph glyph-name="infinity" unicode="&#x221e;" horiz-adv-x="814" 
d="M506 220q20 -20 40 -32t35 -12q18 0 26.5 12t8.5 32q0 44 -35 44q-15 0 -35 -11.5t-40 -32.5zM407 94q-46 -46 -87 -70t-94 -24q-41 0 -77 14.5t-63 42t-42.5 68.5t-15.5 95t15.5 95t42.5 68.5t63 42t77 14.5q53 0 94 -24t87 -70q46 46 87 70t94 24q41 0 77.5 -14.5
t63.5 -42t42.5 -68.5t15.5 -95t-15.5 -95t-42.5 -68.5t-63.5 -42t-77.5 -14.5q-53 0 -94 24t-87 70zM308 220q-21 21 -40.5 32.5t-34.5 11.5q-35 0 -35 -44q0 -20 8.5 -32t26.5 -12q15 0 34.5 12t40.5 32z" />
    <glyph glyph-name="degree" unicode="&#xb0;" horiz-adv-x="374" 
d="M28 451q0 33 12.5 62t34 50.5t50.5 34t62 12.5t62 -12.5t50.5 -34t34 -50.5t12.5 -62t-12.5 -62t-34 -51t-50.5 -34.5t-62 -12.5t-62 12.5t-50.5 34.5t-34 51t-12.5 62zM159 451q0 -11 8.5 -19t19.5 -8t19.5 8t8.5 19t-8.5 19.5t-19.5 8.5t-19.5 -8.5t-8.5 -19.5z" />
    <glyph glyph-name="fraction" unicode="&#x2044;" horiz-adv-x="588" 
d="M413 616l148 -94l-385 -605l-148 94z" />
    <glyph glyph-name="braceleft" unicode="{" horiz-adv-x="396" 
d="M28 297q53 0 70.5 27.5t17.5 92.5q0 39 2.5 72t14.5 56t36 36t68 13h132v-170h-11q-21 0 -34 -3.5t-20.5 -12.5t-10 -24t-2.5 -38q0 -35 -4.5 -57t-13.5 -36t-23.5 -24t-34.5 -20q20 -10 34.5 -19.5t23.5 -24t13.5 -37t4.5 -57.5q0 -45 12.5 -61t54.5 -16h11v-170h-132
q-44 0 -68 12.5t-36 36t-14.5 56t-2.5 72.5q0 65 -17.5 92.5t-70.5 27.5v176z" />
    <glyph glyph-name="braceright" unicode="}" horiz-adv-x="396" 
d="M368.002 297q-52.9971 0 -70.4961 27.5t-17.499 92.5q0 39 -2.5 72q-2.49902 33 -14.499 56q-11.999 23 -35.9971 36q-23.999 13 -67.9961 13h-131.992v-170h10.999q20.999 0 33.998 -3.5t20.499 -12.5q7.49902 -9 9.99902 -24t2.5 -38q0 -35 4.5 -57t13.499 -36
t23.499 -24q14.499 -10 34.4971 -20q-19.998 -10 -34.4971 -19.5q-14.5 -9.5 -23.499 -24t-13.499 -37t-4.5 -57.5q0 -45 -12.499 -61t-54.4971 -16h-10.999v-170h131.992q43.9971 0 67.9961 12.5q23.998 12.5 35.9971 36q12 23.5 14.499 56q2.5 32.5 2.5 72.5
q0 65 17.499 92.5t70.4961 27.5v176z" />
    <glyph glyph-name="bar" unicode="|" horiz-adv-x="237" 
d="M209 -176h-181v770h181v-770z" />
    <glyph glyph-name="brokenbar" unicode="&#xa6;" horiz-adv-x="237" 
d="M209 280h-181v314h181v-314zM209 -176h-181v313h181v-313z" />
    <glyph glyph-name="emdash" unicode="&#x2014;" horiz-adv-x="990" 
d="M963 313v-181h-935v181h935z" />
    <glyph glyph-name="endash" unicode="&#x2013;" horiz-adv-x="495" 
d="M468 313v-181h-440v181h440z" />
    <glyph glyph-name="figuredash" unicode="&#x2012;" horiz-adv-x="495" 
d="M468 313v-181h-440v181h440z" />
    <glyph glyph-name="uni2010" unicode="&#x2010;" horiz-adv-x="385" 
d="M358 313v-181h-330v181h330z" />
    <glyph glyph-name="uni2011" unicode="&#x2011;" horiz-adv-x="385" 
d="M358 313v-181h-330v181h330z" />
    <glyph glyph-name="uni2015" unicode="&#x2015;" horiz-adv-x="990" 
d="M963 313v-181h-935v181h935z" />
    <glyph glyph-name="uni00AD" unicode="&#xad;" horiz-adv-x="385" 
d="M358 313v-181h-330v181h330z" />
    <glyph glyph-name="underscore" unicode="_" horiz-adv-x="495" 
d="M468 116v-144h-440v144h440z" />
    <glyph glyph-name="paragraph" unicode="&#xb6;" horiz-adv-x="561" 
d="M533 0h-153v429h-34v-429h-153v226q-43 0 -74 7.5t-51.5 28.5t-30 58.5t-9.5 97.5t10 97.5t31 58.5t53 28.5t76 7.5h335v-610z" />
    <glyph glyph-name="uni204B" unicode="&#x204b;" horiz-adv-x="561" 
d="M28.0322 0h152.991v429h33.998v-429h152.99v226q42.9971 0 73.9951 7.5q30.999 7.5 51.4971 28.5q20.499 21 29.998 58.5q9.5 37.5 9.5 97.5t-10 97.5q-9.99902 37.5 -30.998 58.5q-20.998 21 -52.9961 28.5t-75.9961 7.5h-334.979v-610z" />
    <glyph glyph-name="uni25CC" unicode="&#x25cc;" horiz-adv-x="616" 
d="M330 143h154v-143h-154v143zM132 143h154v-143h-154v143zM435 313h153v-143h-153v143zM28 313h154v-143h-154v143zM330 484h154v-143h-154v143zM132 484h154v-143h-154v143z" />
    <glyph glyph-name="zero" unicode="0" horiz-adv-x="473" 
d="M237 429q39 0 76.5 -17t67 -45t47.5 -65t18 -76q0 -40 -18 -76.5t-47.5 -65t-67 -45.5t-76.5 -17q-40 0 -77.5 17t-67 45.5t-47 65t-17.5 76.5q0 39 17.5 76t47 65t67 45t77.5 17zM237 193q13 0 22.5 10t9.5 23t-9.5 22.5t-22.5 9.5q-14 0 -23.5 -9.5t-9.5 -22.5t9.5 -23
t23.5 -10z" />
    <glyph glyph-name="one" unicode="1" horiz-adv-x="269" 
d="M61 -55v242q0 47 -3 86.5t-9.5 76.5t-16 73.5t-21.5 77.5l176 60q16 -50 27 -92.5t17 -85.5t8.5 -89t2.5 -101v-248h-181z" />
    <glyph glyph-name="two" unicode="2" horiz-adv-x="462" 
d="M264 187h-12t-10 2v-244h-181v242q0 47 -3 86.5t-9.5 76.5t-16 73.5t-21.5 77.5l176 60l39 -165q4 -19 17 -19q15 0 15 19q0 5 -4.5 37.5t-16.5 94.5l181 33q13 -66 17.5 -112t4.5 -75q0 -39 -12 -73.5t-34.5 -59.5t-55.5 -39.5t-74 -14.5z" />
    <glyph glyph-name="three" unicode="3" horiz-adv-x="676" 
d="M418 561q11 -60 16 -107t6 -71q3 -4 7.5 -5t7.5 -1q8 0 13 5t5 14q0 5 -4 43.5t-12 88.5l181 33q12 -70 14 -114t2 -73q0 -39 -12 -73.5t-34.5 -59.5t-55 -39.5t-73.5 -14.5q-20 0 -49 9.5t-53 34.5q-23 -24 -50.5 -34t-62.5 -10h-12t-10 2v-244h-181v242q0 47 -3 86.5
t-9.5 76.5t-16 73.5t-21.5 77.5l176 60l39 -165q4 -19 17 -19q15 0 15 19q0 5 -4.5 37.5t-16.5 94.5l181 33v0z" />
    <glyph glyph-name="four" unicode="4" horiz-adv-x="605" 
d="M258 346q-3 17 -4 25.5t-1 19.5q0 38 13.5 70t37.5 55.5t56 36.5t69 13q25 0 56 -5t76 -22l-39 -159q-37 7 -53 9t-29 2q-33 0 -33 -25t28 -25q23 0 50 7t59 15l39 -159q-62 -21 -114.5 -30t-94.5 -9q-28 0 -64 3.5t-68 14.5v-238h-181v242q0 47 -3 86.5t-9.5 76.5
t-16 73.5t-21.5 77.5l176 60l44 -192q3 -13 8 -18t19 -5z" />
    <glyph glyph-name="five" unicode="5" horiz-adv-x="621" 
d="M424 154q0 15 -4.5 31.5t-17.5 37t-37 45.5t-63 56q-54 -50 -79 -94t-25 -82q0 -27 19 -27q11 0 15.5 7.5t4.5 19.5v61h148v-82q6 -6 17 -6q8 0 15 8t7 25zM28 127q0 31 7.5 63t25 67.5t46 75.5t69.5 85l-33 29l115 136q105 -80 171 -143.5t102.5 -115.5t49.5 -96t13 -85
q0 -52 -17 -90t-43 -63.5t-58 -38t-63 -12.5q-33 0 -59 7.5t-46 25.5q-20 -18 -46.5 -25.5t-52.5 -7.5q-87 0 -134 50t-47 138z" />
    <glyph glyph-name="six" unicode="6" horiz-adv-x="440" 
d="M429 248q-44 -39 -76 -74.5t-59 -72t-52 -77.5t-55 -90l-154 88q16 27 31 50t30 43.5t31 39.5t34 38q-37 8 -62 25t-40.5 40t-22 50t-6.5 55q0 41 13.5 78t38 64.5t59 44t76.5 16.5q35 0 70.5 -8t77.5 -25l-50 -148q-37 8 -53 9.5t-29 1.5q-15 0 -24 -7t-9 -19
q0 -24 28 -24q23 0 50 8t65 20z" />
    <glyph glyph-name="seven" unicode="7" horiz-adv-x="550" 
d="M187 -55q-15 84 -31 149.5t-36.5 124t-47 118t-61.5 131.5l165 98q23 -43 39 -80.5t27 -74.5t19 -76.5t14 -86.5q6 47 13.5 86.5t19 76.5t27.5 74.5t39 80.5l165 -98q-35 -72 -61.5 -131.5t-47 -118t-36.5 -124t-31 -149.5h-176z" />
    <glyph glyph-name="eight" unicode="8" horiz-adv-x="639" 
d="M463 555q15 -84 31 -149t36.5 -124t47 -118t61.5 -131l-165 -99q-23 43 -39 81t-27.5 75t-19 76.5t-13.5 86.5q-6 -47 -14 -86.5t-19 -76.5t-27 -75t-39 -81l-165 99q35 72 61.5 131t47 118t36.5 124t31 149h176z" />
    <glyph glyph-name="nine" unicode="9" horiz-adv-x="457" 
d="M242 -55v218q-8 -2 -19 -3t-19 -1q-48 0 -82 14.5t-56.5 39.5t-33 58t-10.5 70q0 41 14 81.5t40.5 72.5t64 51.5t85.5 19.5q54 0 91.5 -22t61 -58.5t34.5 -84t11 -99.5v-357h-182zM253 342q0 17 -8 33t-25 16q-12 0 -19.5 -10.5t-7.5 -22.5q0 -13 7.5 -18t19.5 -5
q14 0 33 7z" />
    <glyph glyph-name="H18543" unicode="&#x25aa;" horiz-adv-x="315" 
d="M301 300v-300h-300v300h300z" />
    <glyph glyph-name="H18551" unicode="&#x25ab;" horiz-adv-x="315" 
d="M301 300v-300h-300v300h300zM130 128h43v44h-43v-44z" />
    <glyph glyph-name="bullet" unicode="&#x2022;" horiz-adv-x="349" 
d="M167 0q-35 0 -65 13t-52 35t-35 52t-13 65q0 34 13 64t35 52.5t52 35.5t65 13q34 0 64 -13t52.5 -35.5t36 -52.5t13.5 -64q0 -35 -13.5 -65t-36 -52t-52.5 -35t-64 -13z" />
    <glyph glyph-name="openbullet" unicode="&#x25e6;" horiz-adv-x="349" 
d="M167 0q-34 0 -64 13t-52.5 35t-35.5 52t-13 65q0 34 13 64t35.5 52.5t52.5 35.5t64 13t64 -13t52.5 -35.5t36 -52.5t13.5 -64q0 -35 -13.5 -65t-36 -52t-52.5 -35t-64 -13zM134 165q0 -14 10 -23.5t24 -9.5t23 9.5t9 23.5t-9 24t-23 10t-24 -10t-10 -24z" />
    <glyph glyph-name="uni25C2" unicode="&#x25c2;" horiz-adv-x="349" 
d="M332 389v-418l-362 209z" />
    <glyph glyph-name="uni25C3" unicode="&#x25c3;" horiz-adv-x="349" 
d="M332 389v-418l-362 209zM223 155v51l-44 -26z" />
    <glyph glyph-name="uni25B4" unicode="&#x25b4;" horiz-adv-x="394" 
d="M398 0h-418l209 362z" />
    <glyph glyph-name="uni25B5" unicode="&#x25b5;" horiz-adv-x="394" 
d="M189 362l209 -362h-418zM189 153l-25 -44h51z" />
    <glyph glyph-name="uni25B8" unicode="&#x25b8;" horiz-adv-x="350" 
d="M2 -29v418l363 -209z" />
    <glyph glyph-name="uni25B9" unicode="&#x25b9;" horiz-adv-x="349" 
d="M365 180l-362 -209v418zM156 180l-44 26v-51z" />
    <glyph glyph-name="uni25BE" unicode="&#x25be;" horiz-adv-x="394" 
d="M-20 326h418l-209 -362z" />
    <glyph glyph-name="uni25BF" unicode="&#x25bf;" horiz-adv-x="394" 
d="M-20 326h418l-209 -362zM215 217h-51l25 -44z" />
    <glyph glyph-name="tooth.k.medi" horiz-adv-x="391" 
d="M137 193q7 0 12 4.5t5 11.5v149h181v-149q0 -7 5 -11.5t12 -4.5h39q6 0 10 -2.5t7 -11.5t4 -28t1 -52q0 -35 -1 -55t-4 -30t-7 -12t-10 -2h-32q-35 0 -63 6t-48 27q-25 -21 -49 -27t-45 -6h-154q-6 0 -10.5 2t-7 11.5t-3.5 28.5t-1 52q0 35 1 55t3.5 29.5t7 12t10.5 2.5
h137z" />
    <glyph glyph-name="be.k.medi" horiz-adv-x="391" 
d="M137 193q7 0 12 4.5t5 11.5v149h181v-149q0 -7 5 -11.5t12 -4.5h39q6 0 10 -2.5t7 -11.5t4 -28t1 -52q0 -35 -1 -55t-4 -30t-7 -12t-10 -2h-32q-35 0 -63 6t-48 27q-25 -21 -49 -27t-45 -6h-154q-6 0 -10.5 2t-7 11.5t-3.5 28.5t-1 52q0 35 1 55t3.5 29.5t7 12t10.5 2.5
h137zM331 -192h-182v138h182v-138z" />
    <glyph glyph-name="pe.k.medi" horiz-adv-x="391" 
d="M137 193q7 0 12 4.5t5 11.5v149h181v-149q0 -7 5 -11.5t12 -4.5h39q6 0 10 -2.5t7 -11.5t4 -28t1 -52q0 -35 -1 -55t-4 -30t-7 -12t-10 -2h-32q-35 0 -63 6t-48 27q-25 -21 -49 -27t-45 -6h-154q-6 0 -10.5 2t-7 11.5t-3.5 28.5t-1 52q0 35 1 55t3.5 29.5t7 12t10.5 2.5
h137zM264 -357h-143v138h143v-138zM336 -192h-286v138h286v-138z" />
    <glyph glyph-name="te.k.medi" horiz-adv-x="391" 
d="M137 193q7 0 12 4.5t5 11.5v149h181v-149q0 -7 5 -11.5t12 -4.5h39q6 0 10 -2.5t7 -11.5t4 -28t1 -52q0 -35 -1 -55t-4 -30t-7 -12t-10 -2h-32q-35 0 -63 6t-48 27q-25 -21 -49 -27t-45 -6h-154q-6 0 -10.5 2t-7 11.5t-3.5 28.5t-1 52q0 35 1 55t3.5 29.5t7 12t10.5 2.5
h137zM336 413h-286v137h286v-137z" />
    <glyph glyph-name="the.k.medi" horiz-adv-x="391" 
d="M137 193q7 0 12 4.5t5 11.5v149h181v-149q0 -7 5 -11.5t12 -4.5h39q6 0 10 -2.5t7 -11.5t4 -28t1 -52q0 -35 -1 -55t-4 -30t-7 -12t-10 -2h-32q-35 0 -63 6t-48 27q-25 -21 -49 -27t-45 -6h-154q-6 0 -10.5 2t-7 11.5t-3.5 28.5t-1 52q0 35 1 55t3.5 29.5t7 12t10.5 2.5
h137zM264 578h-143v137h143v-137zM336 413h-286v137h286v-137z" />
    <glyph glyph-name="nun.k.medi" horiz-adv-x="391" 
d="M137 193q7 0 12 4.5t5 11.5v149h181v-149q0 -7 5 -11.5t12 -4.5h39q6 0 10 -2.5t7 -11.5t4 -28t1 -52q0 -35 -1 -55t-4 -30t-7 -12t-10 -2h-32q-35 0 -63 6t-48 27q-25 -21 -49 -27t-45 -6h-154q-6 0 -10.5 2t-7 11.5t-3.5 28.5t-1 52q0 35 1 55t3.5 29.5t7 12t10.5 2.5
h137zM336 413h-182v137h182v-137z" />
    <glyph glyph-name="ye.k.medi" horiz-adv-x="391" 
d="M137 193q7 0 12 4.5t5 11.5v149h181v-149q0 -7 5 -11.5t12 -4.5h39q6 0 10 -2.5t7 -11.5t4 -28t1 -52q0 -35 -1 -55t-4 -30t-7 -12t-10 -2h-32q-35 0 -63 6t-48 27q-25 -21 -49 -27t-45 -6h-154q-6 0 -10.5 2t-7 11.5t-3.5 28.5t-1 52q0 35 1 55t3.5 29.5t7 12t10.5 2.5
h137zM336 -192h-286v138h286v-138z" />
    <glyph glyph-name="ie.k.medi" horiz-adv-x="391" 
d="M137 193q7 0 12 4.5t5 11.5v149h181v-149q0 -7 5 -11.5t12 -4.5h39q6 0 10 -2.5t7 -11.5t4 -28t1 -52q0 -35 -1 -55t-4 -30t-7 -12t-10 -2h-32q-35 0 -63 6t-48 27q-25 -21 -49 -27t-45 -6h-154q-6 0 -10.5 2t-7 11.5t-3.5 28.5t-1 52q0 35 1 55t3.5 29.5t7 12t10.5 2.5
h137zM66 451l51 28q-20 16 -30 39.5t-10 48.5q0 20 7 40.5t21 37t34.5 27t47.5 10.5h88l-16 -110h-50q-11 0 -19 -5.5t-8 -16.5q0 -9 6 -15.5t14 -6.5q14 0 34.5 9t61.5 32l43 -101l-225 -116z" />
    <glyph glyph-name="tooth.k.init" horiz-adv-x="506" 
d="M280 193q7 0 12 4.5t5 11.5v149h182v-165q0 -48 -13.5 -84t-38 -60t-58 -36.5t-72.5 -12.5h-297q-6 0 -10.5 2t-7 11.5t-3.5 28.5t-1 52q0 35 1 55t3.5 29.5t7 12t10.5 2.5h280z" />
    <glyph glyph-name="be.k.init" horiz-adv-x="369" 
d="M-11 94q0 35 1 55t2.5 29.5t3.5 12t4 2.5h143q16 0 16 16v149h182v-165q0 -48 -13.5 -84t-38 -60t-58 -36.5t-72.5 -12.5h-159q-2 0 -4 2t-3.5 11.5t-2.5 28.5t-1 52zM204 -193h-182v138h182v-138z" />
    <glyph glyph-name="pe.k.init" horiz-adv-x="506" 
d="M280 193q7 0 12 4.5t5 11.5v149h182v-165q0 -48 -13.5 -84t-38 -60t-58 -36.5t-72.5 -12.5h-297q-6 0 -10.5 2t-7 11.5t-3.5 28.5t-1 52q0 35 1 55t3.5 29.5t7 12t10.5 2.5h280zM269 -357h-143v138h143v-138zM341 -192h-286v138h286v-138z" />
    <glyph glyph-name="te.k.init" horiz-adv-x="369" 
d="M-11 94q0 35 1 55t2.5 29.5t3.5 12t4 2.5h143q16 0 16 16v149h182v-165q0 -48 -13.5 -84t-38 -60t-58 -36.5t-72.5 -12.5h-159q-2 0 -4 2t-3.5 11.5t-2.5 28.5t-1 52zM341 413h-286v137h286v-137z" />
    <glyph glyph-name="the.k.init" horiz-adv-x="369" 
d="M-11 94q0 35 1 55t2.5 29.5t3.5 12t4 2.5h143q16 0 16 16v149h182v-165q0 -48 -13.5 -84t-38 -60t-58 -36.5t-72.5 -12.5h-159q-2 0 -4 2t-3.5 11.5t-2.5 28.5t-1 52zM269 578h-143v137h143v-137zM341 413h-286v137h286v-137z" />
    <glyph glyph-name="nun.k.init" horiz-adv-x="369" 
d="M-11 94q0 35 1 55t2.5 29.5t3.5 12t4 2.5h143q16 0 16 16v149h182v-165q0 -48 -13.5 -84t-38 -60t-58 -36.5t-72.5 -12.5h-159q-2 0 -4 2t-3.5 11.5t-2.5 28.5t-1 52zM342 413h-182v137h182v-137z" />
    <glyph glyph-name="ye.k.init" horiz-adv-x="506" 
d="M280 193q7 0 12 4.5t5 11.5v149h182v-165q0 -48 -13.5 -84t-38 -60t-58 -36.5t-72.5 -12.5h-297q-6 0 -10.5 2t-7 11.5t-3.5 28.5t-1 52q0 35 1 55t3.5 29.5t7 12t10.5 2.5h280zM341 -192h-286v138h286v-138z" />
    <glyph glyph-name="ie.k.init" horiz-adv-x="369" 
d="M-11 94q0 35 1 55t2.5 29.5t3.5 12t4 2.5h143q16 0 16 16v149h182v-165q0 -48 -13.5 -84t-38 -60t-58 -36.5t-72.5 -12.5h-159q-2 0 -4 2t-3.5 11.5t-2.5 28.5t-1 52zM66 451l51 28q-20 16 -30 39.5t-10 48.5q0 20 7 40.5t21 37t34.5 27t47.5 10.5h88l-16 -110h-50
q-11 0 -19 -5.5t-8 -16.5q0 -9 6 -15.5t14 -6.5q14 0 34.5 9t61.5 32l43 -101l-225 -116z" />
    <glyph glyph-name="re.c.fina" horiz-adv-x="280" 
d="M-55 -39q54 0 76.5 22t22.5 55v320h182v-151q0 -14 16 -14h38q6 0 10.5 -2.5t7 -11.5t3.5 -28t1 -52q0 -35 -1 -55t-3.5 -30t-7 -12t-10.5 -2h-16q-24 0 -42 3q-6 -49 -27 -91.5t-54 -74t-77.5 -50t-97.5 -18.5h-49l-16 192h44z" />
    <glyph glyph-name="re.c" horiz-adv-x="253" 
d="M226 44q0 -56 -19 -106t-53 -87.5t-81.5 -59.5t-105.5 -22h-50l-16 192h44q54 0 76.5 22t22.5 55v320h182v-314z" />
    <glyph glyph-name="ze.c.fina" horiz-adv-x="280" 
d="M-55 -39q54 0 76.5 22t22.5 55v320h182v-151q0 -14 16 -14h38q6 0 10.5 -2.5t7 -11.5t3.5 -28t1 -52q0 -35 -1 -55t-3.5 -30t-7 -12t-10.5 -2h-16q-24 0 -42 3q-6 -49 -27 -91.5t-54 -74t-77.5 -50t-97.5 -18.5h-49l-16 192h44zM226 413h-182v137h182v-137z" />
    <glyph glyph-name="ze.c" horiz-adv-x="253" 
d="M226 44q0 -56 -19 -106t-53 -87.5t-81.5 -59.5t-105.5 -22h-50l-16 192h44q54 0 76.5 22t22.5 55v320h182v-314zM226 413h-182v137h182v-137z" />
    <glyph glyph-name="je.c.fina" horiz-adv-x="280" 
d="M-55 -39q54 0 76.5 22t22.5 55v320h182v-151q0 -14 16 -14h38q6 0 10.5 -2.5t7 -11.5t3.5 -28t1 -52q0 -35 -1 -55t-3.5 -30t-7 -12t-10.5 -2h-16q-24 0 -42 3q-6 -49 -27 -91.5t-54 -74t-77.5 -50t-97.5 -18.5h-49l-16 192h44zM203 578h-143v137h143v-137zM275 413h-286
v137h286v-137z" />
    <glyph glyph-name="je.c" horiz-adv-x="253" 
d="M226 44q0 -56 -19 -106t-53 -87.5t-81.5 -59.5t-105.5 -22h-50l-16 192h44q54 0 76.5 22t22.5 55v320h182v-314zM203 578h-143v137h143v-137zM275 413h-286v137h286v-137z" />
    <glyph glyph-name="_373" 
d="M42 242l101 -44l-90 -198h-106l-90 198l101 44l42 -121z" />
    <glyph glyph-name="uni0695" unicode="&#x695;" horiz-adv-x="253" 
d="M226 44q0 -56 -19 -106t-53 -87.5t-81.5 -59.5t-105.5 -22h-110l-17 192h105q54 0 76.5 22t22.5 55v320h182v-314zM97 -258l101 -44l-90 -198h-106l-90 198l101 44l42 -121z" />
    <glyph glyph-name="uni06B5" unicode="&#x6b5;" horiz-adv-x="649" 
d="M291 -220q-62 0 -110.5 19t-82.5 54.5t-52 86.5t-18 115v209h181v-214q0 -38 22 -58t71 -20h33q54 0 77 22t23 56v560h181v-549q0 -58 -19 -109t-54.5 -89.5t-86.5 -60.5t-115 -22h-50zM295 627l101 -44l-90 -198h-106l-90 198l101 44l42 -121z" />
    <glyph glyph-name="uni06CA" unicode="&#x6ca;" horiz-adv-x="473" 
d="M446 22q0 -66 -18.5 -116.5t-52.5 -84.5t-80.5 -51.5t-101.5 -17.5h-149l-11 193h171q33 0 46.5 13t13.5 42h-16q-62 0 -102 14t-62.5 39.5t-31 62.5t-8.5 82q0 43 13 82t38.5 68.5t62.5 47t84 17.5q41 0 78 -12t65 -38.5t44.5 -68t16.5 -101.5v-171zM215 210
q0 -16 6 -25t27 -9h27v28q0 38 -31 38q-29 0 -29 -32zM391 468h-286v137h286v-137z" />
    <glyph glyph-name="uni06C2" unicode="&#x6c2;" horiz-adv-x="462" 
d="M28 193q0 49 20 92.5t62 94.5l-42 44l128 126q77 -70 124 -121.5t72.5 -92t34 -74.5t8.5 -69q0 -42 -16 -77t-43.5 -61t-66 -40.5t-83.5 -14.5t-82 14t-62.5 39t-39.5 60.5t-14 79.5zM264 211q0 28 -33 58q-33 -32 -33 -58q0 -29 33 -29t33 29zM71 660l51 28
q-20 16 -30 39.5t-10 48.5q0 20 7 40.5t21 37t34.5 27t47.5 10.5h88l-16 -110h-50q-11 0 -19 -5.5t-8 -16.5q0 -9 6 -15.5t14 -6.5q14 0 34.5 9t61.5 32l43 -101l-225 -116z" />
    <glyph glyph-name="uni06D5" unicode="&#x6d5;" horiz-adv-x="462" 
d="M28 193q0 49 20 92.5t62 94.5l-42 44l128 126q77 -70 124 -121.5t72.5 -92t34 -74.5t8.5 -69q0 -42 -16 -77t-43.5 -61t-66 -40.5t-83.5 -14.5t-82 14t-62.5 39t-39.5 60.5t-14 79.5zM264 211q0 28 -33 58q-33 -32 -33 -58q0 -29 33 -29t33 29z" />
    <glyph glyph-name="uni06BE" unicode="&#x6be;" horiz-adv-x="676" 
d="M280 0q-29 -25 -65.5 -56.5t-82.5 -64.5l-110 137q21 13 44 28.5t44 32.5q-42 33 -59.5 74t-17.5 80t15 75t42.5 63t66 43.5t85.5 16.5q27 0 48 -7l101 100l200 -212q34 -36 46 -69.5t12 -64.5q0 -37 -13 -69t-38 -56t-60.5 -37.5t-80.5 -13.5h-177zM223 187
q13 8 21.5 20.5t8.5 29.5q0 12 -8 22t-22 10t-22 -10t-8 -22q0 -17 8.5 -29.5t21.5 -20.5zM462 207q0 4 -2 7.5t-7 9.5t-15 15.5t-25 24.5v-6q0 -20 -3.5 -36.5t-7.5 -28.5h38q13 0 17.5 3.5t4.5 10.5z" />
    <glyph glyph-name="uni06CE" unicode="&#x6ce;" horiz-adv-x="671" 
d="M462 11q0 7 -5 12t-11 5h-193v203q0 45 14 82.5t39.5 64.5t62.5 42t82 15h159l11 -187h-170q-7 0 -11.5 -5t-4.5 -12v-16h33q49 0 82.5 -13t54 -35.5t29.5 -54t9 -68.5q0 -54 -20.5 -102t-57.5 -84t-88.5 -57t-113.5 -21h-72q-62 0 -110.5 19t-82.5 54.5t-52 86.5
t-18 115v209h181v-214q0 -38 22 -58t71 -20h72q50 0 69 11t19 28zM196 572l101 -44l-90 -198h-106l-90 198l101 44l42 -121z" />
    <glyph glyph-name="la.tv" horiz-adv-x="468" 
d="M451 610v-417q0 -50 -13.5 -86t-38 -60t-58 -35.5t-72.5 -11.5h-236v610h182v-417h38q16 0 16 16v401h182zM279 885l101 -44l-90 -198h-106l-90 198l101 44l42 -121z" />
    <glyph glyph-name="la.tv.fina" horiz-adv-x="512" 
d="M33 0v610h182v-417h38q16 0 16 16v401h182v-401q0 -7 5 -11.5t12 -4.5h38q6 0 10 -2.5t7 -11.5t4 -28t1 -52q0 -35 -1 -55t-4 -30t-7 -12t-10 -2h-32q-34 0 -62 6t-49 27q-25 -21 -49 -27t-45 -6h-236zM279 885l101 -44l-90 -198h-106l-90 198l101 44l42 -121z" />
    <glyph glyph-name="ye.tv.k.medi" horiz-adv-x="391" 
d="M137 193q7 0 12 4.5t5 11.5v149h181v-149q0 -7 5 -11.5t12 -4.5h39q6 0 10 -2.5t7 -11.5t4 -28t1 -52q0 -35 -1 -55t-4 -30t-7 -12t-10 -2h-32q-35 0 -63 6t-48 27q-25 -21 -49 -27t-45 -6h-154q-6 0 -10.5 2t-7 11.5t-3.5 28.5t-1 52q0 35 1 55t3.5 29.5t7 12t10.5 2.5
h137zM251 655l101 -44l-90 -198h-106l-90 198l101 44l42 -121zM336 -192h-286v138h286v-138z" />
    <glyph glyph-name="ye.tv.k.init" horiz-adv-x="506" 
d="M280 193q7 0 12 4.5t5 11.5v149h182v-165q0 -48 -13.5 -84t-38 -60t-58 -36.5t-72.5 -12.5h-297q-6 0 -10.5 2t-7 11.5t-3.5 28.5t-1 52q0 35 1 55t3.5 29.5t7 12t10.5 2.5h280zM341 -192h-286v138h286v-138zM388 655l101 -44l-90 -198h-106l-90 198l101 44l42 -121z" />
    <glyph glyph-name="re.bv.c.fina" horiz-adv-x="280" 
d="M-55 -39q54 0 76.5 22t22.5 55v320h182v-151q0 -14 16 -14h38q6 0 10.5 -2.5t7 -11.5t3.5 -28t1 -52q0 -35 -1 -55t-3.5 -30t-7 -12t-10.5 -2h-16q-24 0 -42 3q-6 -49 -27 -91.5t-54 -74t-77.5 -50t-97.5 -18.5h-49l-16 192h44zM97 -258l101 -44l-90 -198h-106l-90 198
l101 44l42 -121z" />
    <glyph glyph-name="re.bv.c" horiz-adv-x="253" 
d="M226 44q0 -56 -19 -106t-53 -87.5t-81.5 -59.5t-105.5 -22h-50l-16 192h44q54 0 76.5 22t22.5 55v320h182v-314zM97 -258l101 -44l-90 -198h-106l-90 198l101 44l42 -121z" />
    <glyph glyph-name="A" unicode="A" horiz-adv-x="647" 
d="M371 262l-56 158q-14 -46 -29.5 -81.5t-28.5 -76.5h114zM654 0h-142q-30 0 -47.5 11t-23.5 29l-34 95h-185q-8 -23 -17.5 -48t-17.5 -48q-5 -15 -23 -27t-46 -12h-142l247 637h183z" />
    <glyph glyph-name="B" unicode="B" horiz-adv-x="608" 
d="M317 138q20 0 33 5.5t20 14t9.5 20t2.5 23.5q0 24 -13.5 39.5t-51.5 15.5h-73v-118h73zM244 501v-118h48q33 0 53 11t20 47q0 35 -16 47.5t-50 12.5h-55zM299 637q70 0 119.5 -12.5t81 -36t46 -56.5t14.5 -74q0 -38 -18.5 -70.5t-64.5 -54.5q50 -20 73 -53.5t23 -82.5
q0 -42 -17 -78.5t-49.5 -62.5t-79.5 -41t-108 -15h-267v637h247z" />
    <glyph glyph-name="C" unicode="C" horiz-adv-x="598" 
d="M533 478q-10 -14 -22 -22t-29 -7q-21 0 -41 13q-29 17 -48.5 26t-47.5 9q-63 0 -95 -49.5t-32 -130.5q0 -84 37 -130t94 -46q29 0 48 6t44 23q9 6 20 11.5t25 5.5q7 0 14.5 -2t18.5 -10.5t28 -24.5t44 -44q-89 -113 -252 -113q-75 0 -134 24.5t-99.5 68t-61.5 103
t-21 128.5q0 71 22.5 131t64.5 104t101.5 68.5t133.5 24.5q76 0 135 -27.5t101 -69.5z" />
    <glyph glyph-name="D" unicode="D" horiz-adv-x="690" 
d="M649 317q0 -69 -23.5 -127t-67 -100.5t-105.5 -66t-139 -23.5h-260v637h260q77 0 139 -24.5t105.5 -67t67 -101t23.5 -127.5zM453 317q0 84 -35.5 132t-103.5 48h-68v-357h68q66 0 102.5 46.5t36.5 130.5z" />
    <glyph glyph-name="E" unicode="E" horiz-adv-x="518" 
d="M244 497v-110h191v-134h-191v-113h249v-140h-443v637h443v-140h-249z" />
    <glyph glyph-name="F" unicode="F" horiz-adv-x="526" 
d="M244 497v-121h206v-142h-206v-234h-194v637h443v-140h-249z" />
    <glyph glyph-name="G" unicode="G" horiz-adv-x="682" 
d="M342 345h268v-276q-54 -41 -112.5 -58.5t-121.5 -17.5q-81 0 -146.5 24.5t-112 68t-71.5 102.5t-25 129q0 72 23.5 132.5t67.5 104t107 67.5t142 24q85 0 149 -28t106 -70l-47 -70q-10 -14 -22 -22t-29 -7q-10 0 -20 2.5t-21 10.5q-31 19 -57 27.5t-61 8.5
q-68 0 -104.5 -49t-36.5 -131q0 -88 41 -136t112 -48q17 0 31.5 3t27.5 7v68h-33q-27 0 -41 12.5t-14 29.5v92z" />
    <glyph glyph-name="H" unicode="H" horiz-adv-x="702" 
d="M634 637v-637h-194v255h-194v-255h-194v637h194v-254h194v254h194z" />
    <glyph glyph-name="I" unicode="I" horiz-adv-x="293" 
d="M240 0h-193v637h193v-637z" />
    <glyph glyph-name="J" unicode="J" horiz-adv-x="403" 
d="M351 234q0 -54 -14.5 -98t-43 -76t-72.5 -49.5t-102 -17.5q-27 0 -56 3.5t-66 13.5l7 92q3 19 16.5 29.5t40.5 10.5q11 0 22 -2t21 -2q28 0 41.5 20t13.5 74v405h192v-403z" />
    <glyph glyph-name="K" unicode="K" horiz-adv-x="645" 
d="M245 392q10 1 20 13l136 198q16 19 35 26.5t48 7.5h162l-199 -270q-12 -15 -25 -27q11 -5 20.5 -14.5t17.5 -21.5l199 -304h-163q-35 0 -50.5 8t-26.5 26l-139 210q-4 7 -11 10t-24 3v-257h-191v637h191v-245z" />
    <glyph glyph-name="L" unicode="L" horiz-adv-x="482" 
d="M468 143v-143h-419v637h194v-494h225z" />
    <glyph glyph-name="M" unicode="M" horiz-adv-x="863" 
d="M787 637v-637h-175v311q-27 -54 -54.5 -106t-54.5 -105q-11 -17 -29 -27.5t-44 -10.5h-18q-53 0 -73 38l-109 214v-314h-175v637h132q27 0 43.5 -4.5t25.5 -24.5l164 -323l165 323q12 22 26.5 25.5t43.5 3.5h132z" />
    <glyph glyph-name="N" unicode="N" horiz-adv-x="702" 
d="M634 637v-637h-100q-23 0 -39.5 8t-35.5 28l-230 293v-329h-177v637h99q28 0 41 -5t27 -22l239 -300v327h176z" />
    <glyph glyph-name="O" unicode="O" horiz-adv-x="736" 
d="M694 317q0 -68 -23.5 -127.5t-67 -103t-105.5 -68.5t-138 -25q-77 0 -139.5 25t-106.5 68.5t-68 103t-24 127.5q0 70 24 130t68 104t106.5 69t139.5 25q76 0 138 -25.5t105.5 -69.5t67 -104t23.5 -129zM498 317q0 85 -35.5 132.5t-102.5 47.5q-69 0 -105 -47.5
t-36 -132.5q0 -83 36 -129t105 -46q67 0 102.5 46t35.5 129z" />
    <glyph glyph-name="P" unicode="P" horiz-adv-x="579" 
d="M292 339q40 0 55 22.5t15 62.5q0 35 -15.5 56t-54.5 21h-48v-162h48zM292 637q71 0 121 -16.5t81.5 -45t46 -67.5t14.5 -84q0 -49 -15 -89.5t-47 -70t-82 -45.5t-119 -16h-48v-203h-194v637h242z" />
    <glyph glyph-name="Q" unicode="Q" horiz-adv-x="737" 
d="M220 317q0 -83 35.5 -129t104.5 -46t104 46t35 129q0 85 -35 132.5t-104 47.5t-104.5 -47.5t-35.5 -132.5zM754 -114h-161q-32 0 -57 7.5t-43 27.5l-69 76q-14 -3 -30.5 -3.5t-33.5 -0.5q-77 0 -139 25t-106 68.5t-67.5 103t-23.5 127.5q0 70 23.5 130t67.5 104t106 69
t139 25q76 0 138 -25.5t106 -69.5t67.5 -104t23.5 -129q0 -75 -27.5 -138.5t-82.5 -109.5z" />
    <glyph glyph-name="R" unicode="R" horiz-adv-x="601" 
d="M275 354q44 0 62.5 22t18.5 56q0 33 -19.5 51t-61.5 18h-30v-147h30zM611 0h-164q-54 0 -74 35l-100 175l1 -1q-5 8 -8.5 11.5t-11.5 3.5h-9v-224h-193v637h223q73 0 124.5 -14.5t83.5 -40.5t47 -62t15 -78q0 -55 -28 -101t-82 -73q11 -8 18.5 -16t14.5 -19z" />
    <glyph glyph-name="S" unicode="S" horiz-adv-x="507" 
d="M432 491q-15 -28 -51 -28q-16 0 -29 6t-26.5 13t-28.5 13t-36 6q-52 0 -52 -46q0 -19 20 -31t50.5 -23t65.5 -23.5t65.5 -33.5t50.5 -53.5t20 -81.5q0 -45 -16.5 -84t-47.5 -68.5t-76.5 -46.5t-103.5 -17q-32 0 -65 7t-64 20t-59 30t-49 38l47 75q7 9 21.5 16.5t32.5 7.5
q19 0 34 -8t30.5 -17.5t33 -17.5t41.5 -8q26 0 41 13t15 42q0 23 -20 36t-50 23.5t-65 22t-65 32.5t-50 55t-20 89q0 37 15.5 72.5t45.5 63t73.5 44t99.5 16.5q62 0 118.5 -21t95.5 -58z" />
    <glyph glyph-name="T" unicode="T" horiz-adv-x="554" 
d="M539 495h-172v-495h-193v495h-170v142h535v-142z" />
    <glyph glyph-name="U" unicode="U" horiz-adv-x="677" 
d="M331 142q45 0 66.5 32t21.5 90v373h193v-373q0 -60 -19 -110t-55 -85.5t-88.5 -55.5t-118.5 -20q-67 0 -119.5 20t-88.5 55.5t-55 85.5t-19 110v373h194v-373q0 -58 22 -90t66 -32z" />
    <glyph glyph-name="V" unicode="V" horiz-adv-x="647" 
d="M654 637l-254 -637h-169l-255 637h146q29 0 47 -12.5t26 -34.5l121 -333l122 341q5 14 23 26.5t47 12.5h146z" />
    <glyph glyph-name="W" unicode="W" horiz-adv-x="957" 
d="M939 637l-198 -637h-170l-105 344l-105 -344h-170l-198 637h150q29 0 47.5 -10.5t23.5 -29.5l76 -287l89 287q4 14 24 27t46 13h43q58 0 72 -44l87 -282l76 286q4 17 24 28.5t47 11.5h141z" />
    <glyph glyph-name="X" unicode="X" horiz-adv-x="648" 
d="M634 0h-177q-26 0 -39.5 8.5t-20.5 22.5l-98 172l-98 -172q-8 -14 -20.5 -22.5t-36.5 -8.5h-168l206 328l-198 309h178q23 0 34.5 -5t17.5 -17l99 -166l93 163q9 14 21.5 19.5t30.5 5.5h173l-201 -302z" />
    <glyph glyph-name="Y" unicode="Y" horiz-adv-x="610" 
d="M393 244v-244h-192v244l-231 393h160q31 0 46.5 -10t24.5 -27l93 -193v1q0 -1 1 -2.5t2 -4.5l90 188q9 17 28 32.5t47 15.5h162z" />
    <glyph glyph-name="Z" unicode="Z" horiz-adv-x="554" 
d="M533 571q-1 -11 -5 -24t-12 -27l-269 -380h276v-140h-520v70q0 23 18 44l269 383h-263v140h506v-66z" />
    <glyph glyph-name="a" unicode="a" horiz-adv-x="475" 
d="M255 173q-47 -5 -60.5 -15.5t-13.5 -23.5q0 -26 20 -26q16 0 27.5 6t26.5 21v38zM23 387q46 42 100.5 61.5t114.5 19.5q45 0 81.5 -13.5t62 -38t39 -59t13.5 -75.5v-282h-86q-26 0 -40.5 5.5t-22.5 23.5q-26 -17 -54.5 -26.5t-69.5 -9.5q-72 0 -114 34t-42 100
q0 24 12 49.5t40.5 47t77 37t120.5 19.5v2q0 30 -8 43.5t-25 13.5q-19 0 -31.5 -5t-25.5 -12q-11 -5 -22 -9.5t-32 -4.5q-23 0 -38 8t-21 21z" />
    <glyph glyph-name="b" unicode="b" horiz-adv-x="526" 
d="M216 138q11 -11 21 -15t19 -4q25 0 41.5 25.5t16.5 90.5q0 57 -12.5 80.5t-36.5 23.5q-14 0 -25 -6t-24 -21v-174zM216 443q19 11 44 17t51 6q43 0 77.5 -16t59 -45t37.5 -71t13 -93q0 -56 -15 -101.5t-42.5 -78t-66 -50.5t-84.5 -18q-33 0 -56 7.5t-40 19.5
q-7 -11 -19.5 -15.5t-27.5 -4.5h-111v649h180v-206z" />
    <glyph glyph-name="c" unicode="c" horiz-adv-x="447" 
d="M396 334q-8 -11 -17 -16t-29 -5q-29 0 -42 12l1 -1q-10 7 -22 11.5t-27 4.5q-34 0 -49.5 -28.5t-15.5 -81.5t17 -82t46 -29q17 0 27 5.5t18.5 12.5t19 12.5t29.5 5.5q17 0 28.5 -5.5t18.5 -13.5l43 -54q-24 -27 -50 -44.5t-52.5 -27.5t-53.5 -13.5t-52 -3.5q-44 0 -84 16
t-71 46.5t-49 74.5t-18 100q0 49 15.5 92.5t46 75t75.5 50t104 18.5t103 -19t82 -57z" />
    <glyph glyph-name="d" unicode="d" horiz-adv-x="526" 
d="M296 325q-12 11 -21 14t-21 3q-23 0 -39.5 -25t-16.5 -88q0 -60 11.5 -83t30.5 -23q15 0 29.5 8.5t26.5 19.5v174zM478 649v-649h-107q-46 0 -56 29q-23 -16 -52 -26t-67 -10q-39 0 -72.5 16t-57.5 46.5t-38 74t-14 99.5q0 51 15 95t43 76t66.5 50t85.5 18
q22 0 39.5 -3.5t32.5 -9.5q1 46 1.5 100t0.5 94h180z" />
    <glyph glyph-name="e" unicode="e" horiz-adv-x="495" 
d="M301 297q-2 20 -12.5 34.5t-35.5 14.5q-40 0 -55 -49h103zM194 192q8 -40 26.5 -56t47.5 -16q19 0 33 5.5t26 12t24.5 12t28.5 5.5t26 -4t18 -12l46 -57q-24 -27 -51.5 -44.5t-55.5 -27.5t-55.5 -13.5t-52.5 -3.5q-50 0 -94 16t-77 47t-52.5 77t-19.5 106q0 46 16.5 87
t47.5 72t75 49.5t100 18.5q48 0 88 -14.5t69 -41.5t45 -66.5t16 -89.5q0 -37 -10 -49.5t-45 -12.5h-220z" />
    <glyph glyph-name="f" unicode="f" horiz-adv-x="344" 
d="M66 0v346q-11 2 -22 4.5t-20 7.5t-14.5 13t-5.5 22v67h62q0 88 52 137.5t146 49.5q20 0 39.5 -4.5t42.5 -10.5l-4 -73q-2 -21 -19.5 -29.5t-35.5 -8.5q-23 0 -34.5 -12.5t-11.5 -48.5h101v-121h-96v-339h-180z" />
    <glyph glyph-name="g" unicode="g" horiz-adv-x="493" 
d="M226 268q17 0 24.5 12t7.5 30q0 40 -32 40q-20 0 -27.5 -10t-7.5 -30q0 -18 8 -30t27 -12zM298 0q0 12 -22 15t-53 5l-42 2q-6 -5 -8.5 -10.5t-2.5 -14.5q0 -12 12.5 -19t47.5 -7q42 0 55 8.5t13 20.5zM476 448v-64q0 -12 -5 -19.5t-13 -12t-17.5 -7.5t-18.5 -5
q2 -5 2.5 -13t0.5 -14q0 -36 -15.5 -64t-42.5 -46.5t-63 -28.5t-78 -10h-28v-21q40 0 87.5 -1t88 -11.5t67.5 -35.5t27 -73q0 -33 -16 -63.5t-46 -54t-74.5 -38t-101.5 -14.5t-99 11t-69.5 29t-40.5 41t-13 47q0 26 15 47t38 35q-11 11 -18 27t-7 33q0 18 12 38.5t35 37.5
q-29 22 -45 51t-16 64t15.5 63.5t43 49t64.5 31.5t81 11q60 0 106 -20h144z" />
    <glyph glyph-name="h" unicode="h" horiz-adv-x="522" 
d="M216 448q36 18 88 18q84 0 128 -50t44 -128v-288h-180v288q0 24 -7.5 37.5t-23.5 13.5q-26 0 -49 -20v-319h-180v649h180v-201z" />
    <glyph glyph-name="i" unicode="i" horiz-adv-x="255" 
d="M215 442v-442h-180v442h180zM226 568q0 -18 -8 -34.5t-21.5 -28.5t-32.5 -19.5t-40 -7.5t-39 7.5t-31.5 19.5t-21 28.5t-7.5 34.5q0 19 7.5 35.5t21 29t31.5 19.5t39 7t40 -7t32.5 -19.5t21.5 -29t8 -35.5z" />
    <glyph glyph-name="j" unicode="j" horiz-adv-x="255" 
d="M214 442v-428q0 -34 -9 -63.5t-29.5 -51.5t-54.5 -34.5t-84 -12.5q-18 0 -37.5 3.5t-45.5 9.5l4 79q1 17 12.5 24t39.5 7q14 0 19 8t5 31v428h180zM224 568q0 -18 -8 -34.5t-22 -28.5t-32 -19.5t-39 -7.5t-39 7.5t-31.5 19.5t-21 28.5t-7.5 34.5q0 19 7.5 35.5t21 29
t31.5 19.5t39 7t39 -7t32 -19.5t22 -29t8 -35.5z" />
    <glyph glyph-name="k" unicode="k" horiz-adv-x="512" 
d="M216 649v-341l1.5 2.5t9.5 14t24.5 36t47.5 69.5q11 15 25 22.5t37 7.5h159l-130 -178q-6 -6 -12.5 -12t-15.5 -14q15 -12 23 -27l136 -229h-152q-23 0 -39.5 6.5t-26.5 23.5l-87 159v-189h-180v649h180z" />
    <glyph glyph-name="l" unicode="l" horiz-adv-x="247" 
d="M211 649v-649h-178v649h178z" />
    <glyph glyph-name="m" unicode="m" horiz-adv-x="769" 
d="M39 0v460h104q20 0 32.5 -6t19.5 -16q19 13 43 20.5t55 7.5q35 0 63 -12t45 -34q26 23 61.5 34.5t71.5 11.5q86 0 132.5 -46.5t46.5 -131.5v-288h-181v288q0 51 -32 51q-14 0 -24 -13.5t-10 -37.5v-288h-179v288q0 28 -8 39.5t-24 11.5q-8 0 -17 -3.5t-19 -14.5v-321
h-180z" />
    <glyph glyph-name="n" unicode="n" horiz-adv-x="522" 
d="M141 460q18 0 32 -6.5t21 -18.5q22 14 48 22.5t62 8.5q84 0 128 -50t44 -128v-288h-180v288q0 24 -7.5 37.5t-23.5 13.5q-26 0 -49 -20v-319h-180v460h105z" />
    <glyph glyph-name="o" unicode="o" horiz-adv-x="531" 
d="M258 466q55 0 100 -16.5t77.5 -47t50.5 -74t18 -98.5t-18 -99t-50.5 -74.5t-77.5 -47t-100 -16.5t-100 16.5t-77.5 47t-50 74.5t-17.5 99t17.5 98.5t50 74t77.5 47t100 16.5zM258 120q61 0 61 110q0 109 -61 109t-61 -109q0 -110 61 -110z" />
    <glyph glyph-name="p" unicode="p" horiz-adv-x="527" 
d="M216 138q11 -11 21 -15t19 -4q26 0 42 25.5t16 87.5q0 61 -12 84t-31 23q-15 0 -29.5 -8t-25.5 -19v-174zM141 460q42 0 54 -31q24 18 53.5 28.5t67.5 10.5q39 0 72.5 -16t57.5 -46t38 -74t14 -100q0 -51 -15 -94.5t-43 -76t-66.5 -50.5t-85.5 -18q-21 0 -39.5 4
t-32.5 10v-145h-180v598h105z" />
    <glyph glyph-name="q" unicode="q" horiz-adv-x="526" 
d="M296 325q-12 11 -21 14t-21 3q-23 0 -39.5 -25t-16.5 -88q0 -60 11.5 -83t30.5 -23q15 0 29.5 8.5t26.5 19.5v174zM476 460v-598h-180v155q-20 -11 -45.5 -17.5t-55.5 -6.5q-39 0 -72 16t-57 46.5t-38 74t-14 99.5q0 51 15 95t43 76t66.5 50t85.5 18q34 0 57 -7t41 -19
q16 18 49 18h105z" />
    <glyph glyph-name="r" unicode="r" horiz-adv-x="357" 
d="M135 460q27 0 40 -7t18 -19q19 16 41 25t51 9q40 0 73 -23l-8 -101q-2 -19 -13.5 -24.5t-33.5 -5.5q-14 0 -23 1.5t-19 1.5q-16 0 -26.5 -11t-20.5 -31v-275h-180v460h101z" />
    <glyph glyph-name="s" unicode="s" horiz-adv-x="413" 
d="M354 340q-8 -10 -17 -15t-28 -5q-15 0 -26.5 4t-22 8.5t-21 8.5t-23.5 4q-25 0 -25 -20q0 -11 14.5 -18.5t37 -15t48 -16.5t48 -24.5t37 -38.5t14.5 -58q0 -71 -52.5 -116t-152.5 -45q-25 0 -51 5.5t-50 14.5t-45.5 21t-36.5 26l36 58l-1 -1q7 12 19.5 18.5t35.5 6.5
q16 0 27 -5t21.5 -10.5t21.5 -10.5t27 -5t22.5 7t6.5 15q0 12 -15 20t-37 15.5t-48.5 17t-48.5 25.5t-37 41t-15 64q0 30 12 57t36.5 48t61 33t85.5 12q55 0 101 -19.5t77 -50.5z" />
    <glyph glyph-name="t" unicode="t" horiz-adv-x="359" 
d="M212 -7q-73 0 -112 38t-39 103v205q-29 0 -45 11.5t-16 31.5v61l71 14q7 23 13.5 47.5t11.5 48.5q9 32 52 32h93v-125h105v-121h-105v-196q0 -8 1 -13.5t2 -5.5q6 0 11.5 5t21.5 5t24.5 -4.5t14.5 -14.5l45 -71q-66 -51 -149 -51z" />
    <glyph glyph-name="u" unicode="u" horiz-adv-x="521" 
d="M472 460v-460h-106q-18 0 -32 6t-21 18q-20 -14 -47 -22.5t-63 -8.5q-42 0 -73.5 13.5t-53 37t-32.5 56.5t-11 72v288h178v-288q0 -50 32 -50q23 0 49 20v318h180z" />
    <glyph glyph-name="v" unicode="v" horiz-adv-x="495" 
d="M498 460l-179 -460h-156l-179 460h139q22 0 38 -8.5t22 -24.5l60 -192l61 192q6 16 22 24.5t36 8.5h136z" />
    <glyph glyph-name="w" unicode="w" horiz-adv-x="741" 
d="M728 461l-145 -461h-125q-17 0 -29.5 7.5t-17.5 25.5l-51 177l-51 -176q-11 -34 -55 -34h-120l-142 461h134q21 0 38.5 -9t21.5 -26l40 -176l49 177q3 16 19.5 25t39.5 9h57q23 0 39.5 -9.5t19.5 -24.5l47 -176l43 174q4 17 20.5 26.5t39.5 9.5h128z" />
    <glyph glyph-name="x" unicode="x" horiz-adv-x="499" 
d="M507 0h-159q-24 0 -37.5 9t-20.5 22l-53 89l-52 -90q-8 -13 -21 -21.5t-37 -8.5h-151l154 235q-35 51 -74.5 112.5t-73.5 112.5h161q22 0 33.5 -6t18.5 -16l54 -87l48 84q9 14 20 19.5t31 5.5h157l-150 -216z" />
    <glyph glyph-name="y" unicode="y" horiz-adv-x="495" 
d="M503 460l-241 -563q-8 -17 -21 -26t-43 -9h-130l91 192q-43 97 -89.5 203t-88.5 203h146q27 0 40 -9t19 -24l64 -166l56 166q5 16 22 24.5t37 8.5h138z" />
    <glyph glyph-name="z" unicode="z" horiz-adv-x="428" 
d="M405 393q0 -14 -7 -29.5t-15 -25.5l-161 -212h179v-126h-391v67q0 9 5 23.5t16 28.5q22 29 42 55t39.5 51.5t39.5 52t42 56.5h-172v126h383v-67z" />
    <glyph glyph-name="zero.onum" horiz-adv-x="582" 
d="M541 253q0 -60 -20.5 -108t-55.5 -81.5t-82 -52t-101 -18.5q-53 0 -99 18.5t-81 52t-55 81.5t-20 108t20 108.5t55 82.5t81 52t99 18q54 0 101 -18t82 -52t55.5 -82.5t20.5 -108.5zM361 253q0 37 -7 62t-18.5 40t-25.5 21.5t-28 6.5q-12 0 -25.5 -6.5t-24.5 -21.5
t-18 -40t-7 -62q0 -36 7 -60.5t18 -40t24.5 -22t25.5 -6.5q14 0 28 6.5t25.5 22t18.5 40t7 60.5z" />
    <glyph glyph-name="one.onum" horiz-adv-x="382" 
d="M319 505v-505h-176v301q-17 -14 -30.5 -18t-23.5 -4q-15 0 -28.5 6t-22.5 16l-52 66l195 138h138z" />
    <glyph glyph-name="two.onum" horiz-adv-x="498" 
d="M383 141q33 0 52.5 -18t19.5 -41v-82h-432v88l180 149q35 29 53 51.5t18 50.5q0 17 -8 29.5t-22 12.5q-18 0 -26.5 -13t-14.5 -30q-8 -18 -19.5 -28t-40.5 -10q-2 0 -6.5 0.5t-16.5 2.5t-34 5.5t-60 10.5q6 41 24 76.5t46.5 61.5t67 40.5t86.5 14.5q43 0 79 -12.5t61 -35
t39 -53t14 -67.5q0 -52 -30.5 -93.5t-78.5 -79.5l-38 -30h87z" />
    <glyph glyph-name="three.onum" horiz-adv-x="495" 
d="M24 319q6 41 23.5 76.5t46 61.5t67 40.5t86.5 14.5t85.5 -13t63 -35.5t38.5 -52t13 -61.5q0 -41 -16.5 -71t-53.5 -50q38 -23 59 -57t21 -84q0 -35 -15 -68.5t-43 -59t-68.5 -41t-92.5 -15.5q-86 0 -142.5 38t-85.5 128l78 32q35 15 59 7t36 -30q11 -23 25.5 -36
t28.5 -13q23 0 37 16.5t14 43.5q0 36 -26.5 50.5t-90.5 14.5v118q22 0 42 3.5t35 11t23.5 19t8.5 29.5q0 19 -9.5 32t-26.5 13q-19 0 -29 -14t-18 -33q-7 -17 -18.5 -25.5t-35.5 -8.5q-3 0 -8 0.5t-17 2.5t-34 5.5t-60 10.5z" />
    <glyph glyph-name="four.onum" horiz-adv-x="516" 
d="M269 169v109l-83 -109h83zM487 169v-81q0 -20 -16 -31.5t-48 -11.5v-134h-159v134h-192q-10 0 -20.5 3.5t-19.5 9.5t-15.5 14t-7.5 18v-1l-12 58l267 358h159v-336h64z" />
    <glyph glyph-name="five.onum" horiz-adv-x="468" 
d="M206 308q7 1 13.5 1h14.5q49 0 87.5 -14t64 -39t39 -59t13.5 -74q0 -49 -17.5 -89.5t-49 -70t-76 -46t-97.5 -16.5q-63 0 -114.5 27.5t-86.5 62.5l43 58q21 24 53 24q15 0 30 -6.5t29 -14.5t27.5 -14.5t26.5 -6.5q34 0 48.5 24.5t14.5 62.5q0 32 -17 49t-46 17
q-15 0 -34 -5.5t-39 -11.5l-103 28l51 310h341v-78q0 -26 -18 -43.5t-58 -17.5h-130z" />
    <glyph glyph-name="six.onum" horiz-adv-x="514" 
d="M253 120q28 0 43.5 23.5t15.5 55.5q0 36 -16.5 56t-43.5 20q-29 0 -46 -22t-17 -54q0 -34 16 -56.5t48 -22.5zM279 392h11q34 0 68.5 -11t62.5 -34t45 -58t17 -83q0 -43 -16.5 -81.5t-47 -68t-73.5 -46.5t-95 -17q-55 0 -98 16t-73 45t-45.5 69.5t-15.5 88.5q0 87 70 181
l120 165q16 19 38 31t54 12h153z" />
    <glyph glyph-name="seven.onum" horiz-adv-x="458" 
d="M449 505v-76q0 -12 -2.5 -25.5t-10.5 -27.5l-207 -421l1 1q-9 -18 -32 -31.5t-50 -13.5h-131l221 418q5 8 11 18.5t12 18.5h-194q-25 0 -44 12.5t-19 37.5v89h445z" />
    <glyph glyph-name="eight.onum" horiz-adv-x="504" 
d="M246 119q24 0 36 18t12 45q0 28 -9.5 46.5t-38.5 18.5q-28 0 -38.5 -18.5t-10.5 -46.5q0 -27 12.5 -45t36.5 -18zM246 483q-20 0 -29 -15.5t-9 -37.5q0 -21 7.5 -39.5t30.5 -18.5q22 0 30.5 18.5t8.5 39.5q0 22 -9.5 37.5t-29.5 15.5zM451 435q0 -39 -15.5 -69.5
t-44.5 -51.5q42 -24 60.5 -58.5t18.5 -77.5q0 -42 -16.5 -76t-46 -58.5t-70.5 -37.5t-91 -13t-91.5 13t-70.5 37.5t-45 58.5t-16 76q0 45 18 78.5t61 56.5q-32 20 -47 50.5t-15 71.5q0 36 15.5 67t43 53.5t65 35.5t82.5 13t82.5 -13t64.5 -35.5t42.5 -53.5t15.5 -67z" />
    <glyph glyph-name="nine.onum" horiz-adv-x="495" 
d="M188 317q0 -67 52 -67q26 0 39 17.5t13 49.5q0 33 -15.5 49.5t-38.5 16.5t-36.5 -18.5t-13.5 -47.5zM223 129q-7 -1 -14 -1h-15q-31 0 -63 11t-58.5 33.5t-43 56t-16.5 79.5q0 42 16 79t46 65.5t71.5 45t92.5 16.5q52 0 93.5 -15.5t70.5 -42.5t44 -65t15 -83
q0 -57 -22 -108.5t-57 -100.5l-107 -152q-25 -36 -84 -36h-152z" />
    <glyph glyph-name="zero.tnum" horiz-adv-x="529" 
d="M508 317q0 -83 -19 -143.5t-52.5 -101t-80 -60t-100.5 -19.5q-53 0 -98.5 19.5t-78.5 60t-51.5 101t-18.5 143.5t18.5 144t51.5 100.5t78.5 59t98.5 19.5q54 0 100.5 -19.5t80 -59t52.5 -100.5t19 -144zM323 317q0 58 -5.5 95t-15 58t-21.5 29t-25 8q-11 0 -22.5 -8
t-20.5 -29t-14.5 -58t-5.5 -95t5.5 -95t14.5 -58t20.5 -29t22.5 -8q13 0 25 8t21.5 29t15 58t5.5 95z" />
    <glyph glyph-name="one.tnum" horiz-adv-x="529" 
d="M478 124v-124h-395v124h116v287q-29 -24 -43 -30.5t-26 -6.5q-17 0 -31.5 7t-19.5 16l-48 65l206 172h143v-510h98z" />
    <glyph glyph-name="two.tnum" horiz-adv-x="531" 
d="M422 147q32 0 51.5 -15.5t19.5 -41.5v-90h-476v57q0 14 7 30.5t24 31.5h-1l173 175q42 41 61 76t19 77q0 58 -44 58q-18 0 -31 -12.5t-19 -29.5q-13 -30 -33.5 -39.5t-57.5 -4.5q-9 1 -21.5 3t-25.5 4t-25 4t-20 4q8 52 29.5 91t53.5 64.5t72.5 38t86.5 12.5
q51 0 91.5 -14t69 -39.5t44 -60.5t15.5 -77q0 -35 -10 -64t-27 -55.5t-40 -51.5t-48 -51l-79 -80h141z" />
    <glyph glyph-name="three.tnum" horiz-adv-x="531" 
d="M26 434q16 105 82 155.5t161 50.5q51 0 90.5 -14t66.5 -37.5t41 -54.5t14 -65q0 -50 -20 -82t-55 -51q42 -24 64 -57.5t22 -80.5q0 -51 -19.5 -89.5t-52.5 -64t-76 -38.5t-91 -13t-86 10.5t-67.5 32.5t-51.5 57t-39 83l76 32q11 4 26 6t29.5 0t27 -9t18.5 -19
q33 -58 67 -58q29 0 44 21.5t15 44.5q0 15 -3 28t-15 22.5t-37.5 15t-70.5 5.5v118q39 0 62 4.5t35.5 13t16.5 20t4 26.5q0 58 -44 58q-19 0 -31.5 -11.5t-18.5 -28.5q-11 -32 -33 -41.5t-58 -4.5z" />
    <glyph glyph-name="four.tnum" horiz-adv-x="531" 
d="M286 260v144l-104 -144h104zM506 266v-89q0 -17 -13 -27.5t-39 -10.5h-11v-139h-164v139h-217q-21 0 -38.5 13.5t-23.5 33.5l-12 59l289 388h166v-367h63z" />
    <glyph glyph-name="five.tnum" horiz-adv-x="531" 
d="M231 427h34q54 0 95 -15.5t69 -42.5t42.5 -63.5t14.5 -77.5q0 -52 -19 -95.5t-53 -74.5t-81 -48t-103 -17q-67 0 -121.5 27t-93.5 64l47 64q16 23 53 23q19 0 33 -6.5t26.5 -15t26.5 -15t34 -6.5q40 0 55.5 27t15.5 65q0 36 -18.5 56t-52.5 20q-31 0 -75 -19l-110 32
l55 324h359v-68q0 -33 -23 -53.5t-79 -20.5h-119z" />
    <glyph glyph-name="six.tnum" horiz-adv-x="531" 
d="M257 125q29 0 48.5 24t19.5 59q0 38 -19 59.5t-50 21.5q-27 0 -45 -22.5t-18 -58.5q0 -38 15 -60.5t49 -22.5zM288 413h13q38 0 74.5 -12t65.5 -36t47 -61t18 -88q0 -45 -18 -85.5t-50.5 -71t-77.5 -48.5t-100 -18q-57 0 -102 17t-75.5 47.5t-47 73.5t-16.5 95
q0 44 19.5 90t50.5 93t67.5 94.5t71.5 94.5q10 14 33.5 24.5t55.5 10.5h155z" />
    <glyph glyph-name="seven.tnum" horiz-adv-x="531" 
d="M500 633v-69q0 -25 -6 -41t-11 -27q-52 -110 -105 -222.5t-104 -221.5q-12 -22 -33 -37t-58 -15h-128l225 454q8 11 13 21.5t9 15.5h-223q-20 0 -37.5 12.5t-17.5 30.5v99h476z" />
    <glyph glyph-name="eight.tnum" horiz-adv-x="531" 
d="M257 122q30 0 44 19.5t14 49.5q0 31 -12.5 52t-45.5 21q-32 0 -43 -21t-11 -52q0 -30 12.5 -49.5t41.5 -19.5zM257 517q-23 0 -33 -18.5t-10 -39.5q0 -26 8.5 -46.5t34.5 -20.5q28 0 36.5 20.5t8.5 46.5q0 21 -9.5 39.5t-35.5 18.5zM480 461q0 -85 -68 -129
q45 -24 66 -60.5t21 -84.5q0 -44 -17.5 -79.5t-49 -61t-76 -39.5t-99.5 -14q-54 0 -98 14t-75.5 39.5t-49 61t-17.5 79.5q0 49 20 85.5t68 60.5q-68 42 -68 128q0 39 16.5 71.5t45.5 56.5t69.5 37.5t88.5 13.5q49 0 90 -13.5t70.5 -37.5t46 -56.5t16.5 -71.5z" />
    <glyph glyph-name="nine.tnum" horiz-adv-x="531" 
d="M198 435q0 -39 14 -57t43 -18t44.5 20.5t15.5 54.5q0 36 -16.5 54.5t-44.5 18.5q-27 0 -41.5 -21t-14.5 -52zM239 235q-7 -1 -14.5 -1h-15.5q-33 0 -67.5 11.5t-62 35.5t-45 60t-17.5 84q0 44 17 83t48.5 68.5t75 46.5t97.5 17q55 0 98.5 -16t73.5 -44.5t46 -68t16 -87.5
q2 -64 -18 -112t-52 -93l-129 -185q-11 -15 -34 -24.5t-53 -9.5h-161z" />
    <glyph glyph-name="comma" unicode="," horiz-adv-x="232" 
d="M39 -100q-16 18 -16 31q0 9 5.5 16t13.5 15.5t17 19.5t16 27q-26 11 -43 32.5t-17 46.5q0 32 27 55t69 23q51 0 74.5 -28.5t23.5 -66.5q0 -43 -33 -98.5t-97 -103.5z" />
    <glyph glyph-name="semicolon" unicode=";" horiz-adv-x="265" 
d="M30 362q0 38 28 62.5t70 24.5q43 0 71.5 -24.5t28.5 -62.5q0 -18 -7.5 -33.5t-21 -27t-32 -18.5t-39.5 -7t-39 7t-31 18.5t-20.5 27t-7.5 33.5zM57 -100q-17 17 -17 31q0 9 5.5 16t14 15.5t17.5 19.5t15 27q-26 11 -42 32.5t-16 46.5q0 32 25.5 55t68.5 23
q51 0 75.5 -28.5t24.5 -66.5q0 -43 -33 -98.5t-98 -103.5z" />
    <glyph glyph-name="question" unicode="?" horiz-adv-x="435" 
d="M12 567q38 29 86 51t111 22q91 0 143.5 -44t52.5 -118q0 -47 -18.5 -75.5t-42 -48t-44.5 -35t-25 -34.5l-15 -71h-133q-5 31 -7 49t-3.5 27t-1.5 12.5v5.5q0 19 8.5 33t21.5 25.5t28.5 22t28.5 22.5t21.5 26.5t8.5 33.5q0 18 -9 28.5t-26 10.5q-18 0 -30 -4.5t-21.5 -10
t-19.5 -10t-24 -4.5q-37 0 -48 23zM92 80q0 36 28.5 61t70.5 25t70 -25t28 -61q0 -18 -7.5 -33.5t-20.5 -27.5t-31 -19t-39 -7t-39 7t-31.5 19t-21 27.5t-7.5 33.5z" />
    <glyph glyph-name="ampersand" unicode="&#x26;" horiz-adv-x="667" 
d="M217 253q-8 -14 -11 -27.5t-3 -30.5q0 -32 15.5 -52t41.5 -20q20 0 33.5 3t30.5 13zM672 0h-168q-29 0 -44.5 5t-30.5 22l-12 15q-38 -23 -84.5 -36t-95.5 -13q-41 0 -80.5 13.5t-70 38.5t-49 61t-18.5 80q0 52 31.5 95.5t80.5 73.5q-18 29 -25 56.5t-7 54.5
q0 35 13.5 66.5t39 55.5t63 38t85.5 14q47 0 82.5 -14t60 -37t38.5 -53t17 -62l-104 -21q-21 -4 -37 3t-24 24q-9 17 -16 27t-17 10q-16 0 -24 -15.5t-8 -35.5t6.5 -36.5t26.5 -36.5q19 -20 33 -35.5t27 -29.5t27 -28.5t32 -33.5q5 16 7.5 33t4.5 35t16 28.5t37 10.5h106
q0 -69 -14 -123.5t-45 -100.5z" />
    <glyph glyph-name="asterisk" unicode="*" horiz-adv-x="394" 
d="M289 500q8 -4 16.5 -10t16.5 -10l40 -26l-47 -78l-66 37v-75h-113v75l-66 -37l-48 79l74 44l-74 45l47 82l67 -40v77h113v-77l66 39l47 -82z" />
    <glyph glyph-name="percent" unicode="%" horiz-adv-x="757" 
d="M328 475q0 -36 -13.5 -66t-36.5 -51.5t-53.5 -33.5t-63.5 -12q-36 0 -67 12t-53.5 33.5t-35 51.5t-12.5 66q0 37 12.5 67.5t35 52.5t53.5 33.5t67 11.5t67 -11.5t53 -33.5t34.5 -52.5t12.5 -67.5zM186 475q0 35 -7.5 47.5t-17.5 12.5q-11 0 -18 -12.5t-7 -47.5t7 -46
t18 -11q10 0 17.5 11t7.5 46zM517 610q8 11 19.5 17.5t36.5 6.5h127l-474 -610q-9 -11 -23 -17.5t-34 -6.5h-130zM751 155q0 -36 -14 -66t-37.5 -51.5t-53.5 -33.5t-63 -12q-36 0 -67 12t-53 33.5t-34.5 51.5t-12.5 66q0 37 12.5 68t34.5 52.5t53 33.5t67 12t67 -12
t53.5 -33.5t35 -52.5t12.5 -68zM609 155q0 36 -7.5 48.5t-18.5 12.5t-17.5 -12.5t-6.5 -48.5q0 -32 6.5 -44t17.5 -12t18.5 12t7.5 44z" />
    <glyph glyph-name="at" unicode="@" horiz-adv-x="765" 
d="M425 334h-3q-18 0 -34.5 -9.5t-28.5 -25t-19.5 -37t-7.5 -45.5q0 -39 19 -39q14 0 26 11.5t20 40.5zM528 238q-3 -9 -4.5 -19t-1.5 -16q0 -16 5.5 -22t13.5 -6q12 0 22.5 10t18 27.5t12 41.5t4.5 52q0 49 -14.5 87t-41.5 64t-64.5 39t-83.5 13q-51 0 -94 -19.5t-73.5 -53
t-47.5 -78.5t-17 -97q0 -65 19 -114t53 -81.5t80.5 -49t101.5 -16.5q43 0 75.5 7t57 16t41 16t27.5 7q25 0 33 -24l21 -52q-47 -30 -110.5 -51t-144.5 -21q-83 0 -153 25.5t-120.5 72.5t-79 114.5t-28.5 150.5q0 69 27 132.5t75 111.5t114 77t143 29q64 0 123.5 -21.5
t105.5 -61.5t73 -96t27 -126q0 -48 -15 -90t-42 -72.5t-64 -48.5t-80 -18q-26 0 -49.5 8.5t-38.5 31.5q-23 -21 -50.5 -30.5t-59.5 -9.5q-62 0 -94 39t-32 98q0 38 14.5 76.5t45 70t76.5 51.5t109 20q40 0 69 -6.5t59 -20.5z" />
    <glyph glyph-name="copyright" unicode="&#xa9;" horiz-adv-x="701" 
d="M442 255q17 0 27 -12l48 -49q-26 -35 -66 -52.5t-91 -17.5q-44 0 -79 15.5t-59.5 42t-38 62t-13.5 76.5q0 44 15.5 80.5t42.5 62.5t63.5 40.5t78.5 14.5q51 0 88 -19.5t62 -48.5l-39 -49q-5 -6 -12 -11t-21 -5q-11 0 -17.5 3.5t-13 8t-15 8t-24.5 3.5q-67 0 -67 -88
q0 -42 16 -65t40 -23q17 0 26.5 3t16.5 6.5t13 7.5t17 6h2zM38 317q0 68 25 127.5t69 104t102.5 70t126.5 25.5q69 0 128.5 -25.5t104 -70t70 -104t25.5 -127.5q0 -66 -25.5 -125t-70 -103t-104 -70t-128.5 -26q-68 0 -126.5 25.5t-102.5 69.5t-69 103t-25 126zM134 317
q0 -51 17.5 -95.5t48 -77.5t72 -52t89.5 -19q49 0 91.5 19t73.5 52t48.5 77.5t17.5 95.5t-17.5 96t-48.5 78.5t-73.5 52.5t-91.5 19q-48 0 -89.5 -19t-72 -52.5t-48 -78.5t-17.5 -96z" />
    <glyph glyph-name="registered" unicode="&#xae;" horiz-adv-x="701" 
d="M355 343q28 0 33.5 10t5.5 27q0 16 -5 24.5t-28 8.5h-18v-70h12zM547 130h-113q-20 0 -31 6t-16 17l-35 97h-9v-120h-127v381h136q88 0 128 -30.5t40 -85.5q0 -33 -14 -60t-46 -44q8 -8 15 -16.5t12 -20.5zM38 317q0 68 25 127.5t69 104t102.5 70t126.5 25.5
q69 0 128.5 -25.5t104 -70t70 -104t25.5 -127.5q0 -66 -25.5 -125t-70 -103t-104 -70t-128.5 -26q-68 0 -126.5 25.5t-102.5 69.5t-69 103t-25 126zM134 317q0 -51 17.5 -95.5t48 -77.5t72 -52t89.5 -19q49 0 91.5 19t73.5 52t48.5 77.5t17.5 95.5t-17.5 96t-48.5 78.5
t-73.5 52.5t-91.5 19q-48 0 -89.5 -19t-72 -52.5t-48 -78.5t-17.5 -96z" />
    <glyph glyph-name="trademark" unicode="&#x2122;" horiz-adv-x="689" 
d="M34 635h245v-92h-63v-186h-119v186h-63v92zM625 635v-278h-109v82l-17 -34q-6 -15 -18 -21t-28 -6h-13q-17 0 -28 5.5t-17 19.5l-15 33v-79h-111v278h93q17 0 26.5 -2t16.5 -18l41 -89l42 89q8 16 17 18t26 2h94z" />
    <glyph glyph-name="currency" unicode="&#xa4;" horiz-adv-x="528" 
d="M257 245q16 0 27.5 14.5t11.5 36.5q0 20 -11.5 34.5t-27.5 14.5q-14 0 -25.5 -14.5t-11.5 -34.5q0 -22 11.5 -36.5t25.5 -14.5zM397 68l-68 68q-31 -14 -72 -14q-19 0 -33.5 2t-30.5 9l-71 -69l-95 91l65 64q-10 20 -13.5 37.5t-3.5 39.5q0 16 4.5 34t12.5 36l-67 64
l95 93l68 -69q31 12 69 12q18 0 35 -2.5t31 -8.5l72 71l94 -92l-65 -64q9 -19 13 -37.5t4 -36.5q0 -21 -3 -38t-13 -35q16 -15 34 -34t33 -32z" />
    <glyph glyph-name="Euro" unicode="&#x20ac;" horiz-adv-x="530" 
d="M12 423h53q12 49 35.5 90t56 69.5t73 44.5t87.5 16q65 0 113 -27.5t79 -72.5l-55 -56q-5 -7 -13.5 -11.5t-23.5 -4.5q-16 0 -25 6t-17.5 13.5t-20 14t-33.5 6.5q-60 0 -89 -88h192v-51q0 -15 -14.5 -27.5t-37.5 -12.5h-153v-17h164v-50q0 -16 -14 -29t-37 -13h-102
q11 -51 33 -75t54 -24q24 0 37 7.5t22 16t18 16t24 7.5q12 0 17.5 -3t13.5 -9l62 -57q-32 -52 -83 -80.5t-118 -28.5q-53 0 -94.5 16.5t-73 47t-51.5 73t-29 93.5h-50v92h42v17h-42v91z" />
    <glyph glyph-name="dollar" unicode="$" horiz-adv-x="530" 
d="M306 127q20 8 28 22t8 38q0 30 -25 44zM231 507q-14 -8 -25 -20.5t-11 -25.5q0 -16 8 -27.5t21 -19.5zM331 376q31 -10 61 -22.5t53.5 -31.5t38 -47t14.5 -68q0 -41 -13.5 -77t-39 -64t-64 -47t-87.5 -25q-1 -11 -2 -25.5t-6.5 -27.5t-16.5 -22t-31 -9h-64l10 91
q-47 10 -92.5 31t-78.5 51l47 67q6 8 18 14.5t26 6.5q23 0 44 -14.5t47 -26.5q3 34 7 67.5t6 68.5q-31 9 -61.5 21t-54.5 32t-38.5 51.5t-14.5 78.5q0 34 13.5 66t40 58.5t64.5 44t88 22.5l5 38q2 15 14.5 28t34.5 13h64l-7 -86q45 -11 77.5 -31.5t58.5 -43.5l-39 -53
q-9 -13 -19 -19t-26 -6t-31.5 9.5t-33.5 14.5z" />
    <glyph glyph-name="cent" unicode="&#xa2;" horiz-adv-x="528" 
d="M250 339q-26 -13 -36 -40t-10 -69q0 -33 5 -56.5t20 -37.5zM484 78q-33 -39 -75 -58t-84 -24q-1 -13 -2.5 -28t-6.5 -28t-16 -21.5t-30 -8.5h-64l8 90q-36 9 -67.5 28.5t-55 48.5t-36.5 67.5t-13 85.5q0 46 14.5 86.5t42 71.5t68.5 50.5t94 24.5l5 51q1 14 14.5 27
t36.5 13h64l-9 -100q59 -16 109 -62l-40 -53q-9 -11 -15.5 -15t-23.5 -4q-11 0 -20 3.5t-23 11.5l-21 -220q10 4 18 9t15.5 9.5t15.5 7.5t18 3q28 0 38 -16z" />
    <glyph glyph-name="sterling" unicode="&#xa3;" horiz-adv-x="529" 
d="M10 299q0 21 15 37t44 16h21v80q0 42 13 80.5t40 67.5t68 46.5t97 17.5q37 0 67 -10t54 -27t42.5 -40t32.5 -50l-67 -42q-17 -9 -35 -9q-15 0 -27.5 8t-24 17t-21.5 17t-21 8q-26 0 -39.5 -21.5t-13.5 -62.5v-80h161v-61q0 -17 -14.5 -29.5t-38.5 -12.5h-108v-56
q0 -18 -5 -35t-16 -33q25 3 46 3h228v-63q0 -23 -19 -44t-52 -21h-418v97q28 5 49.5 20t21.5 42v90h-80v50z" />
    <glyph glyph-name="yen" unicode="&#xa5;" horiz-adv-x="529" 
d="M370 290h99v-89h-127v-17h127v-91h-127v-93h-164v93h-124v91h124v17h-124v89h97l-164 345h131q47 0 60 -35l83 -209l78 202q7 16 23 29t40 13h132z" />
    <glyph glyph-name="estimated" unicode="&#x212e;" horiz-adv-x="735" 
d="M483 401q-2 72 -30 106.5t-81 34.5q-48 0 -80 -35t-34 -106h225zM258 241q0 -31 10 -57.5t28.5 -46t45 -30.5t59.5 -11q46 0 88.5 22.5t79.5 77.5l95 -65q-44 -66 -112.5 -104.5t-180.5 -38.5q-77 0 -139 24t-105.5 67t-67 102.5t-23.5 131.5q0 69 24.5 128.5t68 103.5
t104.5 69.5t133 25.5q83 0 143.5 -28.5t100 -75.5t59.5 -108t22 -127h-433v-60z" />
    </font>
</defs>
</svg>
